[ Сегодня идет свободное скачивание без начисления Download ]


Статистика раздачи
Буду качать: [ 1 ]
 
   
 
Top  
 
 
Неуправляемый / Unstoppable (2010 г.) BDRip 1080p | 60fps Год выпуска: 2010 г.
Жанр: Боевик, Триллер, Драма.
Страна: США.
Режиссер: Тони Скотт.
Продолжительность: 01:38:30
Перевод: Профессиональный (дублированный)
В ролях: Дензел Вашингтон, Крис Пайн, Розарио Доусон, Этан Сапли, Кевин Данн, Кевин Корригэн, Кевин Чэпман, Лью Темпл, ТиДжей Миллер, Джесси Шрэм, Дэвид Уоршофски, Энди Умбергер, Элизабет Мэтис, Дилан Брюс, Джефф Хочендонер, Кристофер Ли Филипс, Кевин МакКлэтчи, Toni Saladna, Патрик МакДэйд, Билл Лэйн ... »
Описание: Потерявший управление огромный беспилотный локомотив с токсичным грузом несется, сметая все на своем пути. Но главная опасность состоит в том, что если он сойдет с рельсов на очередном вираже, химической катастрофы не избежать. Все силы задействованы, все попытки остановить монстра тщетны, планов на спасение не осталось.

Формат видео: MKV
Качество видео: BDRip 1080p | 60fps
Видео кодек: H.264
Аудио кодек: DTS
Видео: 1920x800 | 59.940 fps | 10.7 Мбит/сек
Аудио: DTS | 5.1 | 48 kHz | 768 kbps | 16 bit | Дубляж |

Отчёт MediaInfo

Общее
Уникальный идентификатор : 209693559443668405878125245679481232887 (0x9DC182B1F2AE5A65AD67F292CB399DF7)
Полное имя : D:\Видео\njhtyn\Неуправляемый 2010.mkv
Формат : Matroska
Версия формата : Version 2
Размер файла : 7,39 Гбайт
Продолжительность : 1 ч. 38 м.
Общий поток : 10,7 Мбит/сек
Дата кодирования : UTC 2016-03-06 10:36:18
Программа кодирования : mkvmerge v5.8.0 ('No Sleep / Pillow') built on Sep 2 2012 15:37:04
Библиотека кодирования : libebml v1.2.3 + libmatroska v1.3.0
Видео
Идентификатор : 1
Формат : AVC
Формат/Информация : Advanced Video Codec
Профиль формата : High@L4.2
Параметр CABAC формата : Да
Параметр ReFrames формата : 4 кадра
Режим смешивания : Header stripping
Идентификатор кодека : V_MPEG4/ISO/AVC
Продолжительность : 1 ч. 38 м.
Битрейт : 9999 Кбит/сек
Ширина : 1920 пикселей
Высота : 800 пикселей
Соотношение сторон : 2,40:1
Режим частоты кадров : Постоянный
Частота кадров : 59,940 (60000/1001) кадров/сек
Цветовое пространство : YUV
Субдискретизация насыщенности : 4:2:0
Битовая глубина : 8 бит
Тип развёртки : Прогрессивная
Бит/(Пиксели*Кадры) : 0.109
Размер потока : 6,72 Гбайт (91%)
Библиотека кодирования : x264 core 148 r2638 7599210
Настройки программы : cabac=1 / ref=3 / deblock=1:0:0 / analyse=0x3:0x113 / me=hex / subme=7 / psy=1 / psy_rd=1.00:0.00 / mixed_ref=1 / me_range=16 / chroma_me=1 / trellis=1 / 8x8dct=1 / cqm=0 / deadzone=21,11 / fast_pskip=1 / chroma_qp_offset=-2 / threads=6 / lookahead_threads=1 / sliced_threads=0 / nr=0 / decimate=1 / interlaced=0 / bluray_compat=0 / constrained_intra=0 / bframes=3 / b_pyramid=2 / b_adapt=1 / b_bias=0 / direct=1 / weightb=1 / open_gop=0 / weightp=2 / keyint=599 / keyint_min=59 / scenecut=40 / intra_refresh=0 / rc_lookahead=40 / rc=2pass / mbtree=1 / bitrate=9999 / ratetol=1.0 / qcomp=0.60 / qpmin=0 / qpmax=69 / qpstep=4 / cplxblur=20.0 / qblur=0.5 / ip_ratio=1.40 / aq=1:1.00
Default : Да
Forced : Нет
Аудио
Идентификатор : 2
Формат : DTS
Формат/Информация : Digital Theater Systems
Режим : 16
Параметр Endianness формата : Big
Режим смешивания : Header stripping
Идентификатор кодека : A_DTS
Продолжительность : 1 ч. 38 м.
Вид битрейта : Постоянный
Битрейт : 755 Кбит/сек
Каналы : 6 каналов
Расположение каналов : Front: L C R, Side: L R, LFE
Частота : 48,0 КГц
Частота кадров : 93,750 кадра/сек (512 spf)
Битовая глубина : 24 бит
Метод сжатия : С потерями
Размер потока : 532 Мбайт (7%)
Заголовок : DTS 5.1 768 kbps
Язык : Russian
Default : Да
Forced : Нет
Меню
00:00:00.000 : en:Chapter 1
00:04:45.619 : en:Chapter 2
00:09:41.456 : en:Chapter 3
00:14:37.668 : en:Chapter 4
00:18:10.965 : en:Chapter 5
00:20:58.841 : en:Chapter 6
00:22:58.919 : en:Chapter 7
00:25:31.363 : en:Chapter 8
00:30:16.523 : en:Chapter 9
00:33:58.411 : en:Chapter 10
00:37:38.506 : en:Chapter 11
00:39:59.105 : en:Chapter 12
00:41:28.569 : en:Chapter 13
00:46:36.919 : en:Chapter 14
00:49:18.706 : en:Chapter 15
00:52:24.933 : en:Chapter 16
00:54:13.584 : en:Chapter 17
00:58:44.146 : en:Chapter 18
01:01:02.742 : en:Chapter 19
01:03:14.290 : en:Chapter 20
01:07:20.787 : en:Chapter 21
01:10:00.154 : en:Chapter 22
01:15:11.465 : en:Chapter 23
01:18:24.533 : en:Chapter 24
01:21:13.410 : en:Chapter 25
01:24:53.505 : en:Chapter 26
01:30:31.551 : en:Chapter 27
01:32:58.865 : en:Chapter 28

Скриншоты

[Цитировать]



Показать сообщения:    

Текущее время: 10-Дек 11:59

Часовой пояс: UTC + 3


Вы не можете начинать темы
Вы не можете отвечать на сообщения
Вы не можете редактировать свои сообщения
Вы не можете удалять свои сообщения
Вы не можете голосовать в опросах
Вы не можете прикреплять файлы к сообщениям
Вы не можете скачивать файлы

!ВНИМАНИЕ!
Сайт не предоставляет электронные версии произведений, а занимается лишь коллекционированием и каталогизацией ссылок, присылаемых и публикуемых на форуме нашими читателями. Если вы являетесь правообладателем какого-либо представленного материала и не желаете, чтобы ссылка на него находилась в нашем каталоге, свяжитесь с нами, и мы незамедлительно удалим ее. Файлы для обмена на трекере предоставлены пользователями сайта, и администрация не несет ответственности за их содержание. Просьба не заливать файлы, защищенные авторскими правами, а также файлы нелегального содержания!