[ Сегодня идет свободное скачивание без начисления Download ]


Статистика раздачи
Скачал: [ 1 ]
 
   
 
Top  
 
 
Тысячелетие / Millennium (1989) BDRip 1080p Информация о фильме
Название: Тысячелетие
Оригинальное название: Millennium
Год выхода: 1989
Страна: США, Канада
Жанр: Фантастика
Продолжительность: 01:45:42
Перевод: Профессиональный (дублированный) Киностудия "Мосфильм"
Перевод: Профессиональный (двухголосый закадровый) ОРТ
Перевод: Профессиональный (двухголосый закадровый) П. Гланц и И. Королёва
Субтитры: Английские
Режиссер: Майкл Андерсон
В ролях: Крис Кристофферсон, Шерил Лэдд, Дэниел Дж. Траванти, Роберт Джой, Ллойд Бокнер, Брент Карвер, Дэвид Макилрайт, Мори Чайкин, Эл Уоксмен, Лоуренс Дэйн
О фильме: Далекое будущее. Земная цивилизация, состоящая из неспособных на продолжение рода мутантов, находится на грани вымирания. Единственное решение для спасения человечества — в его прошлом.
С помощью Ворот Времени спец отряды из будущего похищают пассажиров с самолетов за несколько секунд до крушения, заменяя их искусственными телами. Долгое время в нашем столетии ничего не подозревают, но тайное не может оставаться таковым вечно.

Файл
Качество: BDRip 1080p
Формат: MKV
Видео: MPEG4 Video (H264), 1920x1040, 23.976fps, 12.7 Mbps
Аудио #1: Русский, Dolby AC3, 48000 Hz, 2ch, 192 kbps - Дубляж, Мосфильм
Аудио #2: Русский, Dolby AC3, 48000 Hz, 2ch, 192 kbps - Двухголосый закадровый, ОРТ
Аудио #3: Русский, Dolby AC3, 48000 Hz, 2ch, 192 kbps - Двухголосый закадровый, П.Гланц и И.Королёва
Аудио #4: Английский, Dolby AC3, 48000 Hz, 2ch, 448 kbps
Формат субтитров: softsub (SRT)
Сэмпл

MediaInfo:

General
Unique ID : 224066692915232850362001265785843016933 (0xA891ACE33F71749A9925A915BE30E4E5)
Complete name : G:Torrent 21989.Millennium.renta23.mkv
Format : Matroska
Format version : Version 4 / Version 2
File size : 10.1 GiB
Duration : 1h 45mn
Overall bit rate : 13.7 Mbps
Movie name : 1989 Тысячелетие / renta23
Encoded date : UTC 2016-03-12 19:40:36
Writing application : mkvmerge v8.3.0 ('Over the Horizon') 64bit
Writing library : libebml v1.3.1 + libmatroska v1.4.2
Video
ID : 1
Format : AVC
Format/Info : Advanced Video Codec
Format profile : High@L4.1
Format settings, CABAC : Yes
Format settings, ReFrames : 5 frames
Codec ID : V_MPEG4/ISO/AVC
Duration : 1h 45mn
Bit rate : 12.7 Mbps
Width : 1 920 pixels
Height : 1 040 pixels
Display aspect ratio : 1.85:1
Frame rate mode : Constant
Frame rate : 23.976 (24000/1001) fps
Color space : YUV
Chroma subsampling : 4:2:0
Bit depth : 8 bits
Scan type : Progressive
Bits/(Pixel*Frame) : 0.265
Stream size : 9.37 GiB (93%)
Title : 1989 Тысячелетие
Writing library : x264 core 146 r2538 121396c
Encoding settings : cabac=1 / ref=5 / deblock=1:-1:-1 / analyse=0x3:0x133 / me=umh / subme=11 / psy=1 / psy_rd=1.07:0.23 / mixed_ref=1 / me_range=32 / chroma_me=1 / trellis=2 / 8x8dct=1 / cqm=0 / deadzone=21,11 / fast_pskip=0 / chroma_qp_offset=-3 / threads=12 / lookahead_threads=3 / sliced_threads=0 / nr=0 / decimate=1 / interlaced=0 / bluray_compat=0 / constrained_intra=0 / bframes=12 / b_pyramid=2 / b_adapt=2 / b_bias=0 / direct=3 / weightb=1 / open_gop=0 / weightp=2 / keyint=250 / keyint_min=23 / scenecut=40 / intra_refresh=0 / rc=2pass / mbtree=0 / bitrate=12700 / ratetol=1.0 / qcomp=0.60 / qpmin=0 / qpmax=69 / qpstep=4 / cplxblur=20.0 / qblur=0.5 / ip_ratio=1.40 / pb_ratio=1.30 / aq=2:1.00
Language : English
Default : Yes
Forced : No
Audio #1
ID : 2
Format : AC-3
Format/Info : Audio Coding 3
Mode extension : CM (complete main)
Format settings, Endianness : Big
Codec ID : A_AC3
Duration : 1h 45mn
Bit rate mode : Constant
Bit rate : 192 Kbps
Channel(s) : 2 channels
Channel positions : Front: L R
Sampling rate : 48.0 KHz
Frame rate : 31.250 fps (1536 spf)
Compression mode : Lossy
Stream size : 145 MiB (1%)
Title : Дубляж
Language : Russian
Default : Yes
Forced : No
Audio #2
ID : 3
Format : AC-3
Format/Info : Audio Coding 3
Mode extension : CM (complete main)
Format settings, Endianness : Big
Codec ID : A_AC3
Duration : 1h 45mn
Bit rate mode : Constant
Bit rate : 192 Kbps
Channel(s) : 2 channels
Channel positions : Front: L R
Sampling rate : 48.0 KHz
Frame rate : 31.250 fps (1536 spf)
Compression mode : Lossy
Stream size : 145 MiB (1%)
Title : Двухголосый закадровый, ОРТ
Language : Russian
Default : No
Forced : No
Audio #3
ID : 4
Format : AC-3
Format/Info : Audio Coding 3
Mode extension : CM (complete main)
Format settings, Endianness : Big
Codec ID : A_AC3
Duration : 1h 45mn
Bit rate mode : Constant
Bit rate : 192 Kbps
Channel(s) : 2 channels
Channel positions : Front: L R
Sampling rate : 48.0 KHz
Frame rate : 31.250 fps (1536 spf)
Compression mode : Lossy
Stream size : 145 MiB (1%)
Title : Двухголосый закадровый, П.Гланц и И.Королёва
Language : Russian
Default : No
Forced : No
Audio #4
ID : 5
Format : AC-3
Format/Info : Audio Coding 3
Mode extension : CM (complete main)
Format settings, Endianness : Big
Codec ID : A_AC3
Duration : 1h 45mn
Bit rate mode : Constant
Bit rate : 448 Kbps
Channel(s) : 2 channels
Channel positions : Front: L R
Sampling rate : 48.0 KHz
Frame rate : 31.250 fps (1536 spf)
Compression mode : Lossy
Stream size : 339 MiB (3%)
Language : English
Default : No
Forced : No
Text
ID : 6
Format : UTF-8
Codec ID : S_TEXT/UTF8
Codec ID/Info : UTF-8 Plain Text
Duration : 1h 45mn
Bit rate : 57 bps
Count of elements : 1413
Stream size : 44.3 KiB (0%)
Language : English
Default : No
Forced : No
Menu
00:00:00.000 : en:Chapter 01
00:12:42.762 : en:Chapter 02
00:27:54.047 : en:Chapter 03
00:44:28.207 : en:Chapter 04
00:58:47.982 : en:Chapter 05
01:11:30.244 : en:Chapter 06
01:24:52.045 : en:Chapter 07
01:40:39.158 : en:Chapter 08

Скриншоты


[Цитировать]



Показать сообщения:    

Текущее время: 10-Дек 13:50

Часовой пояс: UTC + 3


Вы не можете начинать темы
Вы не можете отвечать на сообщения
Вы не можете редактировать свои сообщения
Вы не можете удалять свои сообщения
Вы не можете голосовать в опросах
Вы не можете прикреплять файлы к сообщениям
Вы не можете скачивать файлы

!ВНИМАНИЕ!
Сайт не предоставляет электронные версии произведений, а занимается лишь коллекционированием и каталогизацией ссылок, присылаемых и публикуемых на форуме нашими читателями. Если вы являетесь правообладателем какого-либо представленного материала и не желаете, чтобы ссылка на него находилась в нашем каталоге, свяжитесь с нами, и мы незамедлительно удалим ее. Файлы для обмена на трекере предоставлены пользователями сайта, и администрация не несет ответственности за их содержание. Просьба не заливать файлы, защищенные авторскими правами, а также файлы нелегального содержания!