[ Сегодня идет свободное скачивание без начисления Download ]


Статистика раздачи
Нет
 
   
 
Top  
 
 
Выкуп / Ransom (1996) BDRip-AVC Информация о фильме
Название: Выкуп
Оригинальное название: Ransom
Год выхода: 1996
Жанр: Триллер, криминал
Режиссер: Рон Ховард
В ролях: Мэл Гибсон, Рене Руссо, Броули Нолти, Гэри Синиз, Делрой Линдо, Лили Тэйлор, Лив Шрайбер, Донни Уолберг, Нэнси Тикотин, Майкл Гэстон, Пол Гилфойл, Хосе Зунига, Дэн Хедайя, Майк Ходж, Джон Шорт, Эван Хэндлер
О фильме:
У преуспевающего владельца авиакомпании (Гибсон) похищают сына и требуют выкуп в 2 миллиона долларов. Мы все время видим и похитителей, и раздираемых страхом и тревогой родителей. Гибсон по настоянию жены сообщает о похищении в ФБР, и зритель видит детально выписанную работу специалистов в контакте с отцом. Выясняется, что в прошлом у Гибсона было черное пятно - он дал в свое время взятку и избежал тюрьмы, куда попал другой человек. Не буду рассказывать хитросплетения сюжета, о том, кто стоял за похищением и почему был выбран именно Гибсон. Скажу только, что смотрится этот очень неглупый триллер с огромным интересом - впрочем, вряд ли автор "Храброго сердца" стал бы сниматься в какой-нибудь ерунде. Особенно впечатляет сюжетный ход, когда отчаявшийся отец объявляет по национальному телевидению 2 млн. долларов за голову похитителя, живого или мертвого.

Страна: США, Touchstone Pictures
Продолжительность: 02:01:27
Перевод: Дублированный, профессиональный многоголосый, профессиональный двухголосый, авторский (одноголосый) закадровый
Дата релиза: 08.06.2012
Файл
Кодек: H.264
Качество: BDRip (AVC) (Blu-Ray Remux (1080p))
Видео: MPEG-4 AVC, 2600 Кбит/с, 1024x552
Звук:
Аудио №1: Русский (AC3, 2 ch, 192 Кбит/с) - Дублированный (Невафильм)
Аудио №2: Русский (AC3, 6 ch, 448 Кбит/с) - Профессиональный многоголосый (Киномания)
Аудио №3: Русский (AC3, 6 ch, 448 Кбит/с) - Профессиональный многоголосый (Видеосервис)
Аудио №4: Русский (AC3, 6 ch, 448 Кбит/с) - Профессиональный многоголосый (FDV)
Аудио №5: Русский (AC3, 2 ch, 192 Кбит/с) - Профессиональный многоголосый (ТК Россия)
Аудио №6: Русский (AC3, 2 ch, 192 Кбит/с) - Профессиональный двухголосый (ТНТ)
Аудио №7: Русский (AC3, 2 ch, 192 Кбит/с) - Авторский одноголосый (С.Визгунов)
Аудио №8: Русский (AC3, 6 ch, 448 Кбит/с) - Авторский одноголосый (А.Гаврилов)
Аудио №9: Русский (AC3, 6 ch, 384 Кбит/с) - Авторский одноголосый ( Ю.Живов)
Аудио №10: Английский (AC3, 6 ch, 448 Кбит/с)

Медиа-инфо

Общее
Уникальный идентификатор : 229744093567802809914377392515025161297 (0xACD71A59EFEF3BD28D998C07D39F4C51)
Полное имя : E:Vikup.1996.x264.BDRip.(AVC).ExKinoRay.mkv
Формат : Matroska
Размер файла : 5,09 Гбайт
Продолжительность : 2 ч. 1 м.
Общий поток : 5995 Кбит/сек
Название фильма : Vikup.1996.x264.BDRip.(AVC).ExKinoRay
Дата кодирования : UTC 2013-10-09 21:04:35
Программа кодирования : mkvmerge v4.0.0 ('The Stars were mine') сборка от Jun 6 2010 16:18:42
Библиотека кодирования : libebml v1.0.0 + libmatroska v1.0.0
Видео
Идентификатор : 1
Формат : AVC
Формат/Информация : Advanced Video Codec
Профиль формата : [email protected]
Параметр CABAC формата : Да
Параметр ReFrames формата : 8 кадров
Идентификатор кодека : V_MPEG4/ISO/AVC
Продолжительность : 2 ч. 1 м.
Битрейт : 2600 Кбит/сек
Ширина : 1024 пикс.
Высота : 552 пикс.
Соотношение сторон : 1,855
Частота кадров : 23,976 кадр/сек
Цветовое пространство : YUV
Подвыборка цветности : 4:2:0
Битовая глубина : 8 бит
Тип развёртки : Прогрессивная
Бит/(Пиксели*Кадры) : 0.192
Размер потока : 2,11 Гбайт (41%)
Заголовок : Rip by Enigma-Vladislav71
Библиотека кодирования : x264 core 116 r2074 2641b9e
Настройки программы : cabac=1 / ref=8 / deblock=1:-2:-2 / analyse=0x3:0x133 / me=umh / subme=11 / psy=1 / psy_rd=1.00:0.00 / mixed_ref=1 / me_range=48 / chroma_me=1 / trellis=2 / 8x8dct=1 / cqm=0 / deadzone=21,11 / fast_pskip=0 / chroma_qp_offset=-2 / threads=3 / sliced_threads=0 / nr=0 / decimate=1 / interlaced=0 / bluray_compat=0 / constrained_intra=0 / bframes=8 / b_pyramid=2 / b_adapt=2 / b_bias=0 / direct=3 / weightb=1 / open_gop=0 / weightp=2 / keyint=240 / keyint_min=23 / scenecut=40 / intra_refresh=0 / rc=2pass / mbtree=0 / bitrate=2600 / ratetol=1.0 / qcomp=0.60 / qpmin=10 / qpmax=51 / qpstep=4 / cplxblur=20.0 / qblur=0.5 / ip_ratio=1.40 / pb_ratio=1.30 / aq=2:1.00
Язык : English
Аудио #1
Идентификатор : 2
Формат : AC-3
Формат/Информация : Audio Coding 3
Расширение режима : CM (complete main)
Идентификатор кодека : A_AC3
Продолжительность : 2 ч. 1 м.
Вид битрейта : Постоянный
Битрейт : 192 Кбит/сек
Каналы : 2 канала
Расположение каналов : Front: L R
Частота : 48,0 КГц
Битовая глубина : 16 бит
Метод сжатия : С потерями
Размер потока : 167 Мбайт (3%)
Заголовок : Дублированный (Невафильм)
Язык : Russian
Аудио #2
Идентификатор : 3
Формат : AC-3
Формат/Информация : Audio Coding 3
Расширение режима : CM (complete main)
Идентификатор кодека : A_AC3
Продолжительность : 2 ч. 1 м.
Вид битрейта : Постоянный
Битрейт : 448 Кбит/сек
Каналы : 6 каналов
Расположение каналов : Front: L C R, Side: L R, LFE
Частота : 48,0 КГц
Битовая глубина : 16 бит
Метод сжатия : С потерями
Размер потока : 389 Мбайт (7%)
Заголовок : Профессиональный многоголосый (Киномания)
Язык : Russian
Аудио #3
Идентификатор : 4
Формат : AC-3
Формат/Информация : Audio Coding 3
Расширение режима : CM (complete main)
Идентификатор кодека : A_AC3
Продолжительность : 2 ч. 1 м.
Вид битрейта : Постоянный
Битрейт : 448 Кбит/сек
Каналы : 6 каналов
Расположение каналов : Front: L C R, Side: L R, LFE
Частота : 48,0 КГц
Битовая глубина : 16 бит
Метод сжатия : С потерями
Размер потока : 389 Мбайт (7%)
Заголовок : Профессиональный многоголосый (Видеосервис)
Язык : Russian
Аудио #4
Идентификатор : 5
Формат : AC-3
Формат/Информация : Audio Coding 3
Расширение режима : CM (complete main)
Идентификатор кодека : A_AC3
Продолжительность : 2 ч. 1 м.
Вид битрейта : Постоянный
Битрейт : 448 Кбит/сек
Каналы : 6 каналов
Расположение каналов : Front: L C R, Side: L R, LFE
Частота : 48,0 КГц
Битовая глубина : 16 бит
Метод сжатия : С потерями
Размер потока : 389 Мбайт (7%)
Заголовок : Профессиональный многоголосый (FDV)
Язык : Russian
Аудио #5
Идентификатор : 6
Формат : AC-3
Формат/Информация : Audio Coding 3
Расширение режима : CM (complete main)
Идентификатор кодека : A_AC3
Продолжительность : 2 ч. 1 м.
Вид битрейта : Постоянный
Битрейт : 192 Кбит/сек
Каналы : 2 канала
Расположение каналов : Front: L R
Частота : 48,0 КГц
Битовая глубина : 16 бит
Метод сжатия : С потерями
Размер потока : 167 Мбайт (3%)
Заголовок : Профессиональный многоголосый (ТК Россия)
Язык : Russian
Аудио #6
Идентификатор : 7
Формат : AC-3
Формат/Информация : Audio Coding 3
Расширение режима : CM (complete main)
Идентификатор кодека : A_AC3
Продолжительность : 2 ч. 1 м.
Вид битрейта : Постоянный
Битрейт : 192 Кбит/сек
Каналы : 2 канала
Расположение каналов : Front: L R
Частота : 48,0 КГц
Битовая глубина : 16 бит
Метод сжатия : С потерями
Размер потока : 167 Мбайт (3%)
Заголовок : Профессиональный двухголосый (ТНТ)
Язык : Russian
Аудио #7
Идентификатор : 8
Формат : AC-3
Формат/Информация : Audio Coding 3
Расширение режима : CM (complete main)
Идентификатор кодека : A_AC3
Продолжительность : 2 ч. 1 м.
Вид битрейта : Постоянный
Битрейт : 192 Кбит/сек
Каналы : 2 канала
Расположение каналов : Front: L R
Частота : 48,0 КГц
Битовая глубина : 16 бит
Метод сжатия : С потерями
Размер потока : 167 Мбайт (3%)
Заголовок : Авторский одноголосый (С.Визгунов)
Язык : Russian
Аудио #8
Идентификатор : 9
Формат : AC-3
Формат/Информация : Audio Coding 3
Расширение режима : CM (complete main)
Идентификатор кодека : A_AC3
Продолжительность : 2 ч. 1 м.
Вид битрейта : Постоянный
Битрейт : 448 Кбит/сек
Каналы : 6 каналов
Расположение каналов : Front: L C R, Side: L R, LFE
Частота : 48,0 КГц
Битовая глубина : 16 бит
Метод сжатия : С потерями
Размер потока : 389 Мбайт (7%)
Заголовок : Авторский одноголосый (А.Гаврилов)
Язык : Russian
Аудио #9
Идентификатор : 10
Формат : AC-3
Формат/Информация : Audio Coding 3
Расширение режима : CM (complete main)
Идентификатор кодека : A_AC3
Продолжительность : 2 ч. 1 м.
Вид битрейта : Постоянный
Битрейт : 384 Кбит/сек
Каналы : 6 каналов
Расположение каналов : Front: L C R, Side: L R, LFE
Частота : 48,0 КГц
Битовая глубина : 16 бит
Метод сжатия : С потерями
Размер потока : 334 Мбайт (6%)
Заголовок : Авторский одноголосый ( Ю.Живов)
Язык : Russian
Аудио #10
Идентификатор : 11
Формат : AC-3
Формат/Информация : Audio Coding 3
Расширение режима : CM (complete main)
Идентификатор кодека : A_AC3
Продолжительность : 2 ч. 1 м.
Вид битрейта : Постоянный
Битрейт : 448 Кбит/сек
Каналы : 6 каналов
Расположение каналов : Front: L C R, Side: L R, LFE
Частота : 48,0 КГц
Битовая глубина : 16 бит
Метод сжатия : С потерями
Размер потока : 389 Мбайт (7%)
Заголовок : английский
Язык : English
Текст #1
Идентификатор : 12
Формат : UTF-8
Идентификатор кодека : S_TEXT/UTF8
Идентификатор кодека/Информация : UTF-8 Plain Text
Язык : Russian
Текст #2
Идентификатор : 13
Формат : UTF-8
Идентификатор кодека : S_TEXT/UTF8
Идентификатор кодека/Информация : UTF-8 Plain Text
Язык : English
Меню
00:00:00.000 : en:Chapter 01
00:05:00.000 : en:Chapter 02
00:10:00.000 : en:Chapter 03
00:15:00.000 : en:Chapter 04
00:20:00.000 : en:Chapter 05
00:25:00.000 : en:Chapter 06
00:30:00.000 : en:Chapter 07
00:35:00.000 : en:Chapter 08
00:40:00.000 : en:Chapter 09
00:45:00.000 : en:Chapter 10
00:50:00.000 : en:Chapter 11
00:55:00.000 : en:Chapter 12
01:00:00.000 : en:Chapter 13
01:05:00.000 : en:Chapter 14
01:10:00.000 : en:Chapter 15
01:15:00.000 : en:Chapter 16
01:20:00.000 : en:Chapter 17
01:25:00.000 : en:Chapter 18
01:30:00.000 : en:Chapter 19
01:35:00.000 : en:Chapter 20
01:40:00.000 : en:Chapter 21
01:45:00.000 : en:Chapter 22
01:50:00.000 : en:Chapter 23
01:55:00.000 : en:Chapter 24
02:00:00.000 : en:Chapter 25

Скриншоты

[Цитировать]



Показать сообщения:    

Текущее время: 04-Дек 19:23

Часовой пояс: UTC + 3


Вы не можете начинать темы
Вы не можете отвечать на сообщения
Вы не можете редактировать свои сообщения
Вы не можете удалять свои сообщения
Вы не можете голосовать в опросах
Вы не можете прикреплять файлы к сообщениям
Вы не можете скачивать файлы

!ВНИМАНИЕ!
Сайт не предоставляет электронные версии произведений, а занимается лишь коллекционированием и каталогизацией ссылок, присылаемых и публикуемых на форуме нашими читателями. Если вы являетесь правообладателем какого-либо представленного материала и не желаете, чтобы ссылка на него находилась в нашем каталоге, свяжитесь с нами, и мы незамедлительно удалим ее. Файлы для обмена на трекере предоставлены пользователями сайта, и администрация не несет ответственности за их содержание. Просьба не заливать файлы, защищенные авторскими правами, а также файлы нелегального содержания!