[ Сегодня идет свободное скачивание без начисления Download ]


Статистика раздачи
Нет
 
   
 
Top  
 
 
Носители / Carriers (2009) BDRip 720p Информация о фильме
Название: Носители
Оригинальное название: Carriers
Год выхода: 2009
Жанр: Ужасы, фантастика, триллер, драма
Режиссер: Алекс Пастор, Дэвид Пастор
В ролях: Лу Тейлор Пуччи, Крис Пайн, Пайпер Перабо, Эмили ВанКэмп, Кристофер Мелони, Кирнан Шипка, Рон МакКлэри, Марк Мозес, Джош Берри, Тим Дженис
О фильме:
Ужасная инфекция вырвалась в наш мир. Убивающая людей в страшных муках, она моментально и глобально распространилась воздушно-капельным путем среди людей. Четверо друзей оказались застигнуты этой эпидемией в дороге. Постоянное передвижение стало для них единственным путем к выживанию. Избегая контактов, они стремятся покинуть зараженную территорию, но удастся ли им выжить?...

Страна: США
Студия: Paramount Vantage, Ivy Boy Productions, Likely Story, This Is That Productions
Продолжительность: 01:24:36
Перевод: Дублированный
Файл
Кодек: x264
Качество: BDRip 720p
Видео: MPEG-4 AVC, 9900 Кбит/с, 1280x720, 23,976 кадр/с
Звук:
Аудио #1: Русский (AC3, 6 ch,448 Кбит/с) / Дублированный
Аудио #2: Русский (DTS, 6 ch,1509 Кбит/с) / Дублированный
Аудио #3: Английский (AC3, 6 ch, 448 Кбит/с)
Субтитры: Русские, английские
Семпл

О релизе

• За исходник Blu-ray RUS 1080p спасибо: HDClub - muzvoz
• Сохранены оригинальные чаптеры как на Blu-ray.

Log x264

raw [info]: 1280x720p 1:1 @ 24000/1001 fps (cfr)
x264 [info]: using SAR=1/1
x264 [info]: using cpu capabilities: MMX2 SSE2Fast SSSE3 SSE4.2 AVX FMA3 AVX2 LZCNT BMI2
x264 [info]: profile High, level 4.1
x264 [info]: frame I:754 Avg QP:16.73 size:137166
x264 [info]: frame P:27388 Avg QP:18.60 size: 79475
x264 [info]: frame B:93562 Avg QP:20.58 size: 42725
x264 [info]: consecutive B-frames: 2.6% 4.5% 8.5% 19.0% 16.1% 32.8% 7.0% 2.4% 2.5% 2.1% 1.1% 0.7% 0.7%
x264 [info]: mb I I16..4: 13.8% 71.9% 14.3%
x264 [info]: mb P I16..4: 3.1% 35.3% 1.5% P16..4: 19.8% 22.1% 8.4% 1.1% 0.1% skip: 8.6%
x264 [info]: mb B I16..4: 0.6% 7.9% 0.1% B16..8: 33.7% 23.0% 6.1% direct:10.0% skip:18.6% L0:43.5% L1:41.2% BI:15.2%
x264 [info]: 8x8 transform intra:88.9% inter:55.7%
x264 [info]: direct mvs spatial:96.7% temporal:3.3%
x264 [info]: coded y,uvDC,uvAC intra: 89.8% 86.5% 65.0% inter: 49.7% 38.3% 17.0%
x264 [info]: i16 v,h,dc,p: 77% 7% 8% 9%
x264 [info]: i8 v,h,dc,ddl,ddr,vr,hd,vl,hu: 7% 7% 14% 10% 13% 12% 12% 11% 13%
x264 [info]: i4 v,h,dc,ddl,ddr,vr,hd,vl,hu: 9% 6% 10% 9% 15% 13% 14% 11% 12%
x264 [info]: i8c dc,h,v,p: 45% 21% 15% 19%
x264 [info]: Weighted P-Frames: Y:14.1% UV:10.1%
x264 [info]: ref P L0: 39.9% 8.9% 22.3% 8.4% 7.3% 4.8% 4.7% 2.8% 0.7% 0.1%
x264 [info]: ref B L0: 70.0% 14.2% 7.0% 3.9% 2.8% 1.5% 0.5%
x264 [info]: ref B L1: 92.1% 7.9%
x264 [info]: kb/s:9893.55
encoded 121704 frames, 5.90 fps, 9893.55 kb/s

MI

General
Unique ID : 200276263298470484351973261984742929304 (0x96ABCE25C234452781F51D25289A7398)
Complete name : Carriers.2009.[RUS_Trasfer].BDRip.720p.MediaClub.mkv
Format : Matroska
Format version : Version 4 / Version 2
File size : 7.27 GiB
Duration : 1h 24mn
Overall bit rate : 12.3 Mbps
Movie name : release MediaClub - MINION
Encoded date : UTC 2016-03-12 14:36:35
Writing application : mkvmerge v8.9.0 ('Father Daughter') 64bit
Writing library : libebml v1.3.3 + libmatroska v1.4.4
Attachements : cover.jpg / Log x264.log
Video
ID : 1
Format : AVC
Format/Info : Advanced Video Codec
Format profile : High@L4.1
Format settings, CABAC : Yes
Format settings, ReFrames : 8 frames
Codec ID : V_MPEG4/ISO/AVC
Duration : 1h 24mn
Bit rate : 9 900 Kbps
Width : 1 280 pixels
Height : 720 pixels
Display aspect ratio : 16:9
Frame rate mode : Constant
Frame rate : 23.976 fps
Color space : YUV
Chroma subsampling : 4:2:0
Bit depth : 8 bits
Scan type : Progressive
Bits/(Pixel*Frame) : 0.448
Stream size : 5.70 GiB (78%)
Title : Carriers 2009 BDRip-720p RUS [MediaClub - MINION]
Writing library : x264 core 148 r2638 7599210
Encoding settings : cabac=1 / ref=8 / deblock=1:-3:-3 / analyse=0x3:0x133 / me=umh / subme=11 / psy=1 / psy_rd=1.00:0.10 / mixed_ref=1 / me_range=48 / chroma_me=1 / trellis=2 / 8x8dct=1 / cqm=0 / deadzone=21,11 / fast_pskip=0 / chroma_qp_offset=-3 / threads=6 / lookahead_threads=1 / sliced_threads=0 / nr=0 / decimate=0 / interlaced=0 / bluray_compat=0 / constrained_intra=0 / bframes=12 / b_pyramid=2 / b_adapt=2 / b_bias=0 / direct=3 / weightb=1 / open_gop=0 / weightp=2 / keyint=240 / keyint_min=23 / scenecut=40 / intra_refresh=0 / rc=2pass / mbtree=0 / bitrate=9900 / ratetol=1.0 / qcomp=0.60 / qpmin=10 / qpmax=51 / qpstep=4 / cplxblur=20.0 / qblur=0.5 / ip_ratio=1.40 / pb_ratio=1.30 / aq=1:1.00
Language : English
Default : Yes
Forced : No
Audio #1
ID : 2
Format : AC-3
Format/Info : Audio Coding 3
Mode extension : CM (complete main)
Format settings, Endianness : Big
Codec ID : A_AC3
Duration : 1h 24mn
Bit rate mode : Constant
Bit rate : 448 Kbps
Channel(s) : 6 channels
Channel positions : Front: L C R, Side: L R, LFE
Sampling rate : 48.0 KHz
Compression mode : Lossy
Stream size : 271 MiB (4%)
Title : Дубляж
Language : Russian
Default : Yes
Forced : No
Audio #2
ID : 3
Format : DTS
Format/Info : Digital Theater Systems
Mode : 16
Format settings, Endianness : Big
Codec ID : A_DTS
Duration : 1h 24mn
Bit rate mode : Constant
Bit rate : 1 509 Kbps
Channel(s) : 6 channels
Channel positions : Front: L C R, Side: L R, LFE
Sampling rate : 48.0 KHz
Bit depth : 24 bits
Compression mode : Lossy
Stream size : 913 MiB (12%)
Title : Дубляж
Language : Russian
Default : No
Forced : No
Audio #3
ID : 4
Format : AC-3
Format/Info : Audio Coding 3
Mode extension : CM (complete main)
Format settings, Endianness : Big
Codec ID : A_AC3
Duration : 1h 24mn
Bit rate mode : Constant
Bit rate : 448 Kbps
Channel(s) : 6 channels
Channel positions : Front: L C R, Side: L R, LFE
Sampling rate : 48.0 KHz
Compression mode : Lossy
Stream size : 271 MiB (4%)
Language : English
Default : No
Forced : No
Text #1
ID : 5
Format : UTF-8
Codec ID : S_TEXT/UTF8
Codec ID/Info : UTF-8 Plain Text
Language : Russian
Default : No
Forced : No
Text #2
ID : 6
Format : UTF-8
Codec ID : S_TEXT/UTF8
Codec ID/Info : UTF-8 Plain Text
Language : English
Default : No
Forced : No
Menu
00:00:00.000 : en:00:00:00.000
00:05:34.376 : en:00:05:34.376
00:14:17.315 : en:00:14:17.315
00:20:46.579 : en:00:20:46.579
00:27:51.545 : en:00:27:51.545
00:33:03.023 : en:00:33:03.023
00:40:57.789 : en:00:40:57.789
00:50:01.290 : en:00:50:01.290
00:56:34.057 : en:00:56:34.057
01:02:02.177 : en:01:02:02.177
01:09:30.583 : en:01:09:30.583
01:17:37.278 : en:01:17:37.278

Скриншоты


[Цитировать]



Показать сообщения:    

Текущее время: 10-Дек 02:14

Часовой пояс: UTC + 3


Вы не можете начинать темы
Вы не можете отвечать на сообщения
Вы не можете редактировать свои сообщения
Вы не можете удалять свои сообщения
Вы не можете голосовать в опросах
Вы не можете прикреплять файлы к сообщениям
Вы не можете скачивать файлы

!ВНИМАНИЕ!
Сайт не предоставляет электронные версии произведений, а занимается лишь коллекционированием и каталогизацией ссылок, присылаемых и публикуемых на форуме нашими читателями. Если вы являетесь правообладателем какого-либо представленного материала и не желаете, чтобы ссылка на него находилась в нашем каталоге, свяжитесь с нами, и мы незамедлительно удалим ее. Файлы для обмена на трекере предоставлены пользователями сайта, и администрация не несет ответственности за их содержание. Просьба не заливать файлы, защищенные авторскими правами, а также файлы нелегального содержания!