[ Сегодня идет свободное скачивание без начисления Download ]


Статистика раздачи
Нет
 
   
 
Top  
 
 
Мой друг Иван Лапшин (1984) DVDRip-AVC Информация о фильме
Название: Мой друг Иван Лапшин
Год выхода: 1984
Жанр: Драма, экранизация
Режиссер: Алексей Герман ст.
В ролях: Андрей Болтнев, Андрей Миронов, Нина Русланова, Алексей Жарков, Зинаида Адамович, Александр Филиппенко, Юрий Кузнецов, Валерий Филонов, Анатолий Сливников, Андрей Дударенко, Семён Фарада, Нина Усатова, Валерий Кузин, Юрий Ароян, Сергей Кушаков, Наталья Лабурцева, Б. Мелешкин, Анна Николаева, Ю. Помогаев, Анатолий Шведерский
О фильме:
Оригинальнейшее произведение кинематографа по повестям Юрия Германа. История начальника уголовного розыска города Унчанска, Ивана Лапшина, короткий кусочек его жизни и его друзей, товарищей и знакомых, воспроизведен как увиденный и "вспомненный" мальчиком. В нём нет ничего привычно героического. Несмотря на ужас бессмысленных убийств, Лапшин знает, что в состоянии что-то исправить на этой земле. Текст от автора читает Валерий Кузин.
Страна: СССР, Ленфильм
Продолжительность: 01:34:44
Перевод: не требуется
Файл
Кодек: x264
Качество: DVDRip-AVC
Видео: MPEG-4 AVC, 2500 Кбит/с, [email protected]/* */
Звук: AC3, 6 ch, 448 Кбит/с, AC3, 1 ch, 224 Кбит/с

Скриншоты

Медиа-Инфо

raw [info]: 718x556p 16:15 @ 25/1 fps (cfr)
x264 [info]: using SAR=16/15
x264 [info]: using cpu capabilities: MMX2 SSE2Fast SSSE3 SSE4.2 AVX
x264 [info]: profile High, level 4.1
x264 [info]: frame I:629 Avg QP:16.26 size: 56353
x264 [info]: frame P:36695 Avg QP:18.21 size: 27680
x264 [info]: frame B:104783 Avg QP:21.03 size: 6923
===========================================================================================================
Общее
Уникальный идентификатор : 170307014657943184652898346975188114080 (0x801FF01BFA12E80E9D1895A7C1D25AA0)
Полное имя : D:Мой друг Иван Лапшин_1984-DVDRip-AVC.mkv
Формат : Matroska
Версия формата : Version 2
Размер файла : 2,10 Гбайт
Продолжительность : 1 ч. 34 м.
Общий поток : 3174 Кбит/сек
Дата кодирования : UTC 2016-03-12 09:47:59
Программа кодирования : mkvmerge v5.8.0 ('No Sleep / Pillow') built on Sep 2 2012 15:37:04
Библиотека кодирования : libebml v1.2.3 + libmatroska v1.3.0
Видео
Идентификатор : 1
Формат : AVC
Формат/Информация : Advanced Video Codec
Профиль формата : High@L4.1
Параметр CABAC формата : Да
Параметр ReFrames формата : 16 кадров
Идентификатор кодека : V_MPEG4/ISO/AVC
Продолжительность : 1 ч. 34 м.
Битрейт : 2500 Кбит/сек
Ширина : 718 пикселей
Высота : 556 пикселей
Соотношение сторон : 1,376
Соотношение сторон в оригинале : 1,377
Режим частоты кадров : Постоянный
Частота кадров : 25,000 кадров/сек
Цветовое пространство : YUV
Субдискретизация насыщенности : 4:2:0
Битовая глубина : 8 бит
Тип развёртки : Прогрессивная
Бит/(Пиксели*Кадры) : 0.250
Размер потока : 1,61 Гбайт (77%)
Библиотека кодирования : x264 core 148 r2638 7599210
Настройки программы : cabac=1 / ref=16 / deblock=1:-2:-2 / analyse=0x3:0x133 / me=umh / subme=10 / psy=1 / psy_rd=1.05:0.12 / mixed_ref=1 / me_range=32 / chroma_me=1 / trellis=2 / 8x8dct=1 / cqm=0 / deadzone=21,11 / fast_pskip=0 / chroma_qp_offset=-3 / threads=12 / lookahead_threads=2 / sliced_threads=0 / nr=0 / decimate=0 / interlaced=0 / bluray_compat=0 / constrained_intra=0 / bframes=9 / b_pyramid=2 / b_adapt=2 / b_bias=0 / direct=3 / weightb=1 / open_gop=0 / weightp=2 / keyint=250 / keyint_min=25 / scenecut=40 / intra_refresh=0 / rc_lookahead=40 / rc=2pass / mbtree=1 / bitrate=2500 / ratetol=1.0 / qcomp=0.65 / qpmin=0 / qpmax=39 / qpstep=4 / cplxblur=20.0 / qblur=0.5 / ip_ratio=1.20 / aq=1:1.00
Язык : English
Default : Да
Forced : Нет
Основные цвета : BT.601 PAL
Характеристики трансфера : BT.470 System B, BT.470 System G
Коэффициенты матрицы : BT.601
Аудио #1
Идентификатор : 2
Формат : AC-3
Формат/Информация : Audio Coding 3
Расширение режима : CM (complete main)
Параметр Endianness формата : Big
Идентификатор кодека : A_AC3
Продолжительность : 1 ч. 34 м.
Вид битрейта : Постоянный
Битрейт : 448 Кбит/сек
Каналы : 6 каналов
Расположение каналов : Front: L C R, Side: L R, LFE
Частота : 48,0 КГц
Битовая глубина : 16 бит
Метод сжатия : С потерями
Размер потока : 304 Мбайт (14%)
Язык : Russian
Default : Да
Forced : Нет
Аудио #2
Идентификатор : 3
Формат : AC-3
Формат/Информация : Audio Coding 3
Расширение режима : CM (complete main)
Параметр Endianness формата : Big
Идентификатор кодека : A_AC3
Продолжительность : 1 ч. 34 м.
Вид битрейта : Постоянный
Битрейт : 224 Кбит/сек
Каналы : 1 канал
Расположение каналов : Front: C
Частота : 48,0 КГц
Битовая глубина : 16 бит
Метод сжатия : С потерями
Размер потока : 152 Мбайт (7%)
Язык : Russian
Default : Нет
Forced : Нет

[Цитировать]



Показать сообщения:    

Текущее время: 08-Дек 09:05

Часовой пояс: UTC + 3


Вы не можете начинать темы
Вы не можете отвечать на сообщения
Вы не можете редактировать свои сообщения
Вы не можете удалять свои сообщения
Вы не можете голосовать в опросах
Вы не можете прикреплять файлы к сообщениям
Вы не можете скачивать файлы

!ВНИМАНИЕ!
Сайт не предоставляет электронные версии произведений, а занимается лишь коллекционированием и каталогизацией ссылок, присылаемых и публикуемых на форуме нашими читателями. Если вы являетесь правообладателем какого-либо представленного материала и не желаете, чтобы ссылка на него находилась в нашем каталоге, свяжитесь с нами, и мы незамедлительно удалим ее. Файлы для обмена на трекере предоставлены пользователями сайта, и администрация не несет ответственности за их содержание. Просьба не заливать файлы, защищенные авторскими правами, а также файлы нелегального содержания!