[ Сегодня идет свободное скачивание без начисления Download ]


Статистика раздачи
Нет
 
   
 
Top  
 
 
Меркурий в опасности / Mercury Rising (1998) BDRip 720р Название: Меркурий в опасности
Оригинальное название: Mercury Rising
Год выпуска: 1998
Жанр: Боевик, драма, триллер, экранизация
Выпущено: США, Universal Pictures
Режиссер: Харольд Бекер
В ролях: Брюс Уиллис, Алек Болдуин, Мико Хьюз, Чи МакБрайд, Ким Дикенс, Роберт Стэнтон, Бодхи Элфмэн, Кэрри Престон, Линдси Гинтер, Петер Стормаре, Кевин Конуэй, Джон Кэрролл Линч, Келли Хазен, Джон Домэн, Ричард Нихль, Чад Линдберг, Хэнк Харрис, Джеймс МакДональд, Камрин Менхейм, Джек Конли
О фильме: Бывший сотрудник ФБР Арт Джеффрис защищает от безжалостных федеральных агентов Саймона, девятилетнего мальчика, сумевшего вскрыть новый, "не поддающийся дешифровке" правительственный код. Саймон может читать «Меркурий», новейший шифровальный код, так же легко, как другие дети читают книги. Эти способности ставят под угрозу сам смысл существования новейшей разработки стоимостью миллиард долларов, особенно если враги Соединенных Штатов узнают о необыкновенном мальчике и захватят его. Глава Программы Ник Кудроу приказывает устранить «угрозу безопасности страны», но он не учитывает, что в дело вмешивается Джеффрис. Преследуемые кровавыми убийцами, Саймон и Джеффрис понимают, что никому доверять нельзя. Время работает не на них, и детектив решает, что единственная надежда на спасение — использовать удивительные способности Саймона и призвать убийц к ответу... Экранизация по произведению Райна Дугласа Пирсона «Простак Саймон».

Качество: BDRip 720p
Видео: MPEG-4 AVC, 6925 Кбит/с, 1280x544, 23.976 кадр/с
Аудио: Русский (DTS, 2 ch, 768 Кбит/с), (AC3, 6 ch, 384 Кбит/с), английский (DTS, 6 ch, 1536 Кбит/с)
Продолжительность: 01:51:27
Перевод: Дублированный, профессиональный многоголосый
Субтитры: Русские (форсированные на надписи), английские

Скриншоты

MediaInfo

C:киноuploadMerkurij.v.opasnosti.1998.x264.BDRip.(720p).mkv
General
Unique ID : 203366352433244847825194674384890421745 (0x98FEEF4DF3A66226B518FF8A36E6E1F1)
Complete name : C:киноuploadMerkurij.v.opasnosti.1998.x264.BDRip.(720p).mkv
Format : Matroska
Format version : Version 2
File size : 7.46 GiB
Duration : 1h 51mn
Overall bit rate : 9 583 Kbps
Encoded date : UTC 2011-09-24 11:10:51
Writing application : mkvmerge v4.6.0 ('Still Crazy After All These Years') сборка от Mar 10 2011 02:50:32
Writing library : libebml v1.2.0 + libmatroska v1.1.0
Video #1
ID : 1
Format : AVC
Format/Info : Advanced Video Codec
Format profile : [email protected]
Format settings, CABAC : Yes
Format settings, ReFrames : 9 frames
Codec ID : V_MPEG4/ISO/AVC
Duration : 1h 51mn
Bit rate : 6 925 Kbps
Width : 1 280 pixels
Height : 544 pixels
Display aspect ratio : 2.35:1
Frame rate : 23.976 fps
Color space : YUV
Chroma subsampling : 4:2:0
Bit depth : 8 bits
Scan type : Progressive
Bits/(Pixel*Frame) : 0.415
Stream size : 5.25 GiB (70%)
Writing library : x264 core 102 r1666 d058f37
Encoding settings : cabac=1 / ref=9 / deblock=1:-3:-3 / analyse=0x3:0x133 / me=umh / subme=9 / psy=1 / psy_rd=0.95:0.05 / mixed_ref=1 / me_range=40 / chroma_me=1 / trellis=2 / 8x8dct=1 / cqm=0 / deadzone=21,11 / fast_pskip=0 / chroma_qp_offset=-5 / threads=12 / sliced_threads=0 / nr=0 / decimate=1 / interlaced=0 / constrained_intra=0 / bframes=7 / b_pyramid=2 / b_adapt=2 / b_bias=0 / direct=3 / weightb=1 / open_gop=0 / weightp=2 / keyint=250 / keyint_min=25 / scenecut=40 / intra_refresh=0 / rc_lookahead=40 / rc=2pass / mbtree=0 / bitrate=6925 / ratetol=1.0 / qcomp=0.60 / qpmin=10 / qpmax=51 / qpstep=4 / cplxblur=20.0 / qblur=0.5 / vbv_maxrate=50000 / vbv_bufsize=50000 / ip_ratio=1.40 / pb_ratio=1.30 / aq=1:0.80 / nal_hrd=none
Language : English
Default : No
Forced : No
Audio #2
ID : 2
Format : DTS
Format/Info : Digital Theater Systems
Codec ID : A_DTS
Duration : 1h 51mn
Bit rate mode : Constant
Bit rate : 755 Kbps
Channel(s) : 2 channels
Channel positions : Front: L R
Sampling rate : 48.0 KHz
Bit depth : 24 bits
Compression mode : Lossy
Delay relative to video : 22ms
Stream size : 601 MiB (8%)
Title : DTS 2.0, 768 kbps - DUB
Language : Russian
Default : Yes
Forced : No
Audio #3
ID : 3
Format : AC-3
Format/Info : Audio Coding 3
Mode extension : CM (complete main)
Codec ID : A_AC3
Duration : 1h 51mn
Bit rate mode : Constant
Bit rate : 384 Kbps
Channel(s) : 6 channels
Channel positions : Front: L C R, Side: L R, LFE
Sampling rate : 48.0 KHz
Bit depth : 16 bits
Compression mode : Lossy
Stream size : 306 MiB (4%)
Title : AC3 Dolby Digital, 6 ch, ~384 kbps - MVO
Language : Russian
Default : No
Forced : No
Audio #4
ID : 4
Format : DTS
Format/Info : Digital Theater Systems
Codec ID : A_DTS
Duration : 1h 51mn
Bit rate mode : Constant
Bit rate : 1 510 Kbps
Channel(s) : 6 channels
Channel positions : Front: L C R, Side: L R, LFE
Sampling rate : 48.0 KHz
Bit depth : 24 bits
Compression mode : Lossy
Delay relative to video : 11ms
Stream size : 1.18 GiB (16%)
Language : English
Default : No
Forced : No
Text #5
ID : 5
Format : UTF-8
Codec ID : S_TEXT/UTF8
Codec ID/Info : UTF-8 Plain Text
Title : Forced
Language : Russian
Default : Yes
Forced : No
Text #6
ID : 6
Format : UTF-8
Codec ID : S_TEXT/UTF8
Codec ID/Info : UTF-8 Plain Text
Language : English
Default : No
Forced : No

[Цитировать]



Показать сообщения:    

Текущее время: 05-Дек 05:32

Часовой пояс: UTC + 3


Вы не можете начинать темы
Вы не можете отвечать на сообщения
Вы не можете редактировать свои сообщения
Вы не можете удалять свои сообщения
Вы не можете голосовать в опросах
Вы не можете прикреплять файлы к сообщениям
Вы не можете скачивать файлы

!ВНИМАНИЕ!
Сайт не предоставляет электронные версии произведений, а занимается лишь коллекционированием и каталогизацией ссылок, присылаемых и публикуемых на форуме нашими читателями. Если вы являетесь правообладателем какого-либо представленного материала и не желаете, чтобы ссылка на него находилась в нашем каталоге, свяжитесь с нами, и мы незамедлительно удалим ее. Файлы для обмена на трекере предоставлены пользователями сайта, и администрация не несет ответственности за их содержание. Просьба не заливать файлы, защищенные авторскими правами, а также файлы нелегального содержания!