[ Сегодня идет свободное скачивание без начисления Download ]


Статистика раздачи
Нет
 
   
 
Top  
 
 
Пасечник (2015) HDTVRip (Сезон 2, серий 1-32 из 32) - Производство: Россия\ ООО «Анкор Синема»
Жанр: Детектив, Криминал
Режиссер: Сергей Быстрицкий
Актеры: Анатолий Журавлёв, Анастасия Панина, Сергей Шарифуллин, Леонид Окунев, Любовь Селютина, Людмила Мальцева, Павел Мисаилов, Александр Крайнов, Ксения Иванова, Дмитрий Гудочкин и др...
Описание:
На НТВ — продолжение детективного сериала «Пасечник».
В новых сериях главный герой Глеб Збруев отстраивает пасеку, а тем временем ждут своего часа… полицейский китель и фуражка! Глеб возвращается в органы, но не в качестве сыскаря — эту страницу своей биографии он уже перевернул. Пасечник становится участковым — вместо Васи Клюева, которому с учетом его профессиональных заслуг и образования предлагают работу следователя в Климово.Теперь кабинет Клюева находится в том же здании ОВД, где работает Глеб. «В наследство» от Василия участковому достается Перепилец. Бравая «троица» и составит в новом сезоне костяк законников, противостоящих злу в Климовском районе.
Пасечник 2
Продолжительность: ~ 00:45:00 серия
Качество видео: HDTVRip
Видео: Xvid, 720x400 (16:9), ~1559 Kbps
Аудио: AC3, 2 ch, 192 Kbps, CBR

Mediainfo:

Общее
Полное имя                               : D:\Мои фильмы\Pasechnik_S2_1-32iz32_2016_XviD_HDTVRip\Pasechnik_S2_01_2016_HDTVRip.avi
Формат                                   : AVI
Формат/Информация                        : Audio Video Interleave
Размер файла                             : 555 Мбайт
Продолжительность                        : 44 м.
Общий поток                              : 1761 Кбит/сек
Программа кодирования                    : VirtualDubMod 1.5.10.3 | www.virtualdub-fr.org || (build 2550/release)
Библиотека кодирования                   : VirtualDub build 35491/release
Видео
Идентификатор                            : 0
Формат                                   : MPEG-4 Visual
Профиль формата                          : Advanced Simple@L5
Параметр BVOP формата                    : 2
Параметр QPel формата                    : Нет
Параметр GMC формата                     : Без точки перехода
Параметр матрицы формата                 : Default (H.263)
Идентификатор кодека                     : XVID
Идентификатор кодека/Подсказка           : XviD
Продолжительность                        : 44 м.
Битрейт                                  : 1559 Кбит/сек
Ширина                                   : 720 пикселей
Высота                                   : 400 пикселей
Соотношение сторон                       : 16:9
Частота кадров                           : 25,000 кадров/сек
Цветовое пространство                    : YUV
Субдискретизация насыщенности            : 4:2:0
Битовая глубина                          : 8 бит
Тип развёртки                            : Прогрессивная
Метод сжатия                             : С потерями
Бит/(Пиксели*Кадры)                      : 0.217
Размер потока                            : 492 Мбайт (89%)
Библиотека кодирования                   : XviD 67
Аудио
Идентификатор                            : 1
Формат                                   : AC-3
Формат/Информация                        : Audio Coding 3
Расширение режима                        : CM (complete main)
Параметр Endianness формата              : Big
Идентификатор кодека                     : 2000
Продолжительность                        : 44 м.
Вид битрейта                             : Постоянный
Битрейт                                  : 192 Кбит/сек
Каналы                                   : 2 канала
Расположение каналов                     : Front: L R
Частота                                  : 48,0 КГц
Частота кадров                           : 31,250 кадров/сек (1536 spf)
Метод сжатия                             : С потерями
Размер потока                            : 60,5 Мбайт (11%)
Выравнивание                             : Соединение по промежуткам
Продолжительность промежутка             : 40  мс. (1,00 видеокадр)
Время предзагрузки промежутка            : 512  мс.
Скриншоты:

[Цитировать]



Показать сообщения:    

Текущее время: 10-Дек 10:03

Часовой пояс: UTC + 3


Вы не можете начинать темы
Вы не можете отвечать на сообщения
Вы не можете редактировать свои сообщения
Вы не можете удалять свои сообщения
Вы не можете голосовать в опросах
Вы не можете прикреплять файлы к сообщениям
Вы не можете скачивать файлы

!ВНИМАНИЕ!
Сайт не предоставляет электронные версии произведений, а занимается лишь коллекционированием и каталогизацией ссылок, присылаемых и публикуемых на форуме нашими читателями. Если вы являетесь правообладателем какого-либо представленного материала и не желаете, чтобы ссылка на него находилась в нашем каталоге, свяжитесь с нами, и мы незамедлительно удалим ее. Файлы для обмена на трекере предоставлены пользователями сайта, и администрация не несет ответственности за их содержание. Просьба не заливать файлы, защищенные авторскими правами, а также файлы нелегального содержания!