[ Сегодня идет свободное скачивание без начисления Download ]


Статистика раздачи
Скачал: [ 2 ]
 
   
 
Top  
 
 
Сергей Никонов | Bootstrap (2015) PCRec [H.264]- Автор (режиссер): Сергей Никонов
Жанр: Верстка, Bootstrap
Описание:
Верстка — это один из важнейших этапов создания сайта. Именно на этом этапе вы преобразуете картинку сайта в HTML страницы. Вы научитесь создавать верстку сайта на популярном CSS фреймворке Bootstrap!
Почему стоит изучить Bootstrap:
Сайты созданные на CSS фреймворке Bootstrap корректно работают на всех устройствах
Вы удивитесь, как быстро и очень просто можно создавать адаптивную верстку
Мы научим стилизовать стандартные компоненты Bootstrap и создавать собственные стили для каждого элемента
На всех наших курсах 20% теории и 80% практики
Шаг за шагом мы создадим профессиональную версту веб-сайта, которая будет работать на всех устройствах!
Продолжительность: 03:31:25
Качество видео: PCRec
Видео: AVC/H.264, 1280x692 - 1920x1080, ~200 - 1054 Kbps
Аудио: AAC, 2 ch, 160 - 256 Kbps, VBR

Программа курса:

Урок №1
В этом уроке мы начнем знакомство с Bootstrap, установим его и изучим Grid system. А также вы научитесь настраивать с помощью классов Bootstrap верстку для разных разрешений экрана. В конце урока вы получите домашнее задание.
Урок №2
Во втором уроке мы приступим к созданию страницы портала КиноМонстер и создадим header сайта. Header – это верхняя часть сайта, в него входит название, логотип, меню. В этом уроке мы познакомимся с компонентами Bootstrap, такими как header, navbar и другими.
Урок №3
В этом уроке мы создадим разметку с помощью классов Bootstrap левого и правого блока сайта, а также создадим нижнюю часть сайта footer. В процессе создания этих блоков, мы изучим еще несколько компонентов Bootstrap, а также познакомимся с интересными классами. В конце урока вы получите домашнее задание.
Урок №4
В уроке номер четыре мы создадим правый блок сайта, разместим в него блоки с фильмами, а также другие блоки. В этом же уроке мы изучим новые компоненты Bootstrap и новые классы. В конце урока вы получите домашнее задание.
Урок №5
В этом уроке мы продолжим изучать Bootstrap и создадим левый блок сайта, а также изучим новые компоненты Bootstrap, такие как panel, list group, badges, input-group, form-control и другие. В конце урока вы получите домашнее задание.
Урок №6
В этом уроке мы создадим страницу просмотра информации о фильме и изучим новые компоненты Bootstrap, такие как wells, glyphicons, responsive-embed и другими, а также страницу с контактами. В конце урока вы получите домашнее задание.
Урок №7
В этом уроке мы создадим еще несколько страниц и изучим другие классы и компоненты Bootstrap, а также завершим верстку нашего сайта и свяжем страницы между собой. В конце урока вы получите домашнее задание.
Урок №8
В завершающем уроке курса Bootstrap мы познакомимся с компонентами, которые мы не использовали при создании верстки сайта, но которые вам пригодятся в будущем. А также вы получите рекомендации.

Mediainfo:

Общее
Полное имя                               : C:\Никонов С. - Bootstrap - 2015\Урок 2\Урок 2 [BOOTSTRAP].mp4
Формат                                   : MPEG-4
Профиль формата                          : Base Media / Version 2
Идентификатор кодека                     : mp42 (mp42/mp41/isom/avc1)
Размер файла                             : 193 Мбайт
Продолжительность                        : 40 м.
Режим общего битрейта                    : Переменный
Общий поток                              : 664 Кбит/сек
Дата кодирования                         : UTC 2015-09-07 09:20:34
Дата пометки                             : UTC 2015-09-07 09:20:34
Видео
Идентификатор                            : 1
Формат                                   : AVC
Формат/Информация                        : Advanced Video Codec
Профиль формата                          : High@L3.1
Параметр CABAC формата                   : Да
Параметр ReFrames формата                : 5 кадров
Идентификатор кодека                     : avc1
Идентификатор кодека/Информация          : Advanced Video Coding
Продолжительность                        : 40 м.
Битрейт                                  : 499 Кбит/сек
Номинальный битрейт                      : 2500 Кбит/сек
Ширина                                   : 1280 пикселей
Высота                                   : 692 пикселя
Соотношение сторон                       : 1,85:1
Режим частоты кадров                     : Постоянный
Частота кадров                           : 29,970 (30000/1001) кадров/сек
Цветовое пространство                    : YUV
Субдискретизация насыщенности            : 4:2:0
Битовая глубина                          : 8 бит
Тип развёртки                            : Прогрессивная
Бит/(Пиксели*Кадры)                      : 0.019
Размер потока                            : 145 Мбайт (75%)
Библиотека кодирования                   : x264 core 146 r11M 121396c
Настройки программы                      : cabac=1 / ref=5 / deblock=1:0:0 / analyse=0x3:0x113 / me=umh / subme=8 / psy=1 / psy_rd=1.00:0.00 / mixed_ref=1 / me_range=16 / chroma_me=1 / trellis=1 / 8x8dct=1 / cqm=0 / deadzone=21,11 / fast_pskip=1 / chroma_qp_offset=-2 / threads=48 / lookahead_threads=5 / sliced_threads=0 / nr=0 / decimate=1 / interlaced=0 / bluray_compat=0 / stitchable=1 / constrained_intra=0 / bframes=3 / b_pyramid=2 / b_adapt=2 / b_bias=0 / direct=3 / weightb=1 / open_gop=0 / weightp=2 / keyint=infinite / keyint_min=29 / scenecut=40 / intra_refresh=0 / rc_lookahead=50 / rc=2pass / mbtree=1 / bitrate=2500 / ratetol=1.0 / qcomp=0.60 / qpmin=5 / qpmax=69 / qpstep=4 / cplxblur=20.0 / qblur=0.5 / vbv_maxrate=2750 / vbv_bufsize=7500 / nal_hrd=none / filler=0 / ip_ratio=1.40 / aq=1:1.00
Дата кодирования                         : UTC 2015-09-07 09:20:34
Дата пометки                             : UTC 2015-09-07 09:20:34
Цветовой диапазон                        : Limited
Основные цвета                           : BT.709
Характеристики трансфера                 : BT.709
Коэффициенты матрицы                     : BT.709
Аудио
Идентификатор                            : 2
Формат                                   : AAC
Формат/Информация                        : Advanced Audio Codec
Профиль формата                          : LC
Идентификатор кодека                     : 40
Продолжительность                        : 40 м.
Вид битрейта                             : Переменный
Битрейт                                  : 160 Кбит/сек
Каналы                                   : 2 канала
Расположение каналов                     : Front: L R
Частота                                  : 48,0 КГц
Частота кадров                           : 46,875 кадров/сек (1024 spf)
Метод сжатия                             : С потерями
Размер потока                            : 46,5 Мбайт (24%)
Дата кодирования                         : UTC 2015-09-07 09:20:34
Дата пометки                             : UTC 2015-09-07 09:20:34
Общее
Полное имя                               : C:\Никонов С. - Bootstrap - 2015\Урок 3\Урок 3 [BOOTSTRAP].mp4
Формат                                   : MPEG-4
Профиль формата                          : Base Media / Version 2
Идентификатор кодека                     : mp42 (mp42/mp41/isom/avc1)
Размер файла                             : 47,6 Мбайт
Продолжительность                        : 11 м.
Режим общего битрейта                    : Переменный
Общий поток                              : 560 Кбит/сек
Дата кодирования                         : UTC 2015-09-08 16:45:03
Дата пометки                             : UTC 2015-09-08 16:45:03
Видео
Идентификатор                            : 1
Формат                                   : AVC
Формат/Информация                        : Advanced Video Codec
Профиль формата                          : High@L4
Параметр CABAC формата                   : Да
Параметр ReFrames формата                : 4 кадра
Идентификатор кодека                     : avc1
Идентификатор кодека/Информация          : Advanced Video Coding
Продолжительность                        : 11 м.
Битрейт                                  : 300 Кбит/сек
Ширина                                   : 1920 пикселей
Высота                                   : 1080 пикселей
Соотношение сторон                       : 16:9
Режим частоты кадров                     : Постоянный
Частота кадров                           : 29,970 (30000/1001) кадров/сек
Цветовое пространство                    : YUV
Субдискретизация насыщенности            : 4:2:0
Битовая глубина                          : 8 бит
Тип развёртки                            : Прогрессивная
Бит/(Пиксели*Кадры)                      : 0.005
Размер потока                            : 25,5 Мбайт (53%)
Библиотека кодирования                   : x264 core 148 r11 73ae2d1
Настройки программы                      : cabac=1 / ref=4 / deblock=1:0:0 / analyse=0x3:0x113 / me=umh / subme=8 / psy=1 / psy_rd=1.00:0.00 / mixed_ref=1 / me_range=16 / chroma_me=1 / trellis=1 / 8x8dct=1 / cqm=0 / deadzone=21,11 / fast_pskip=1 / chroma_qp_offset=-2 / threads=34 / lookahead_threads=5 / sliced_threads=0 / nr=0 / decimate=1 / interlaced=0 / bluray_compat=0 / stitchable=1 / constrained_intra=0 / bframes=3 / b_pyramid=2 / b_adapt=2 / b_bias=0 / direct=3 / weightb=1 / open_gop=0 / weightp=2 / keyint=infinite / keyint_min=29 / scenecut=40 / intra_refresh=0 / rc_lookahead=50 / rc=2pass / mbtree=1 / bitrate=300 / ratetol=1.0 / qcomp=0.60 / qpmin=5 / qpmax=69 / qpstep=4 / cplxblur=20.0 / qblur=0.5 / vbv_maxrate=4950 / vbv_bufsize=13500 / nal_hrd=none / filler=0 / ip_ratio=1.40 / aq=1:1.00
Дата кодирования                         : UTC 2015-09-08 16:45:03
Дата пометки                             : UTC 2015-09-08 16:45:03
Цветовой диапазон                        : Limited
Основные цвета                           : BT.709
Характеристики трансфера                 : BT.709
Коэффициенты матрицы                     : BT.709
Аудио
Идентификатор                            : 2
Формат                                   : AAC
Формат/Информация                        : Advanced Audio Codec
Профиль формата                          : LC
Идентификатор кодека                     : 40
Продолжительность                        : 11 м.
Вид битрейта                             : Переменный
Битрейт                                  : 256 Кбит/сек
Каналы                                   : 2 канала
Расположение каналов                     : Front: L R
Частота                                  : 48,0 КГц
Частота кадров                           : 46,875 кадров/сек (1024 spf)
Метод сжатия                             : С потерями
Размер потока                            : 21,8 Мбайт (46%)
Дата кодирования                         : UTC 2015-09-08 16:45:03
Дата пометки                             : UTC 2015-09-08 16:45:03
Скриншоты:

[Цитировать]



Показать сообщения:    

Текущее время: 09-Дек 20:27

Часовой пояс: UTC + 3


Вы не можете начинать темы
Вы не можете отвечать на сообщения
Вы не можете редактировать свои сообщения
Вы не можете удалять свои сообщения
Вы не можете голосовать в опросах
Вы не можете прикреплять файлы к сообщениям
Вы не можете скачивать файлы

!ВНИМАНИЕ!
Сайт не предоставляет электронные версии произведений, а занимается лишь коллекционированием и каталогизацией ссылок, присылаемых и публикуемых на форуме нашими читателями. Если вы являетесь правообладателем какого-либо представленного материала и не желаете, чтобы ссылка на него находилась в нашем каталоге, свяжитесь с нами, и мы незамедлительно удалим ее. Файлы для обмена на трекере предоставлены пользователями сайта, и администрация не несет ответственности за их содержание. Просьба не заливать файлы, защищенные авторскими правами, а также файлы нелегального содержания!