[ Сегодня идет свободное скачивание без начисления Download ]


Статистика раздачи
Нет
 
   
 
Top  
 
 
Багровый цвет снегопада (2009) BDRip 1080р Оригинальное название: Багровый цвет снегопада
Год выпуска: 2009
Жанр: Драма, история
Выпущено: Россия, Vladimir Motyl Studio
Режиссер: Владимир Мотыль
В ролях: Даниэла Стоянович, Александр Цуркан, Артём Артемьев, Александр Балуев, Анатолий Белый, Евгений Вальц, Александр Василевский, Елена Гольянова, Илья Ждаников, Маргарита Иванова (II), Сергей Кагаков, Сергей Клановский, Екатерина Ласунская, Владимир Любовский, Инга Маневич, Евгений Мундум, Юлия Полынская, Виктор Рябов, Сергей Стёпин, Владимир Терещенко, Антон Фигуровский, Михаил Филиппов, Михаил Химичев
О фильме: Действие фильма происходит во время Первой мировой войны. Юная киевлянка Ксения Герстель, дочь миллионера-промышленника, остается сиротой - ее отец был убит во время беспорядков, а вскоре Ксения узнает, что на фронте погиб ее жених Саша. Отчаявшись, она поступила в "Красный крест" и ушла сестрой милосердия на передовую, где встретила новую любовь - генерал-майора Ростислава Баторского, человека, который спас ей жизнь и фактически заменил отца, поселив ее после демобилизации в своей квартире в Петрограде. Одинокий пятидесятитрехлетний генерал влюбляется в Ксению, окружает ее заботой и вниманием и, в конце концов, они становятся мужем и женой. После бесконечных потерь и разочарований, выпавших на ее долю, Ксения обретает веру в будущее, мечтает о большой счастливой семье, о детях. Но революция 1917 года повергает Россию в пучину кровавого хаоса, и надеждам Ксении не суждено сбыться...


Качество: BDRip 1080p
Видео: MPEG-4 AVC, 14.1 Мбит/с, 1920x1080, 23.976 кадр/с
Аудио: Русский (DTS, 6 ch, 1536 Кбит/с)
Продолжительность: 02:06:36
Язык: Русский

Скриншоты

MediaInfo

Общее
Уникальный идентификатор : 183692461367649234101421933565199351014 (0x8A31E195B549771BBB5286211A397CE6)
Полное имя : C:КиноuploadBagroviy.Cvet.Snegopada.2009.1080p.BluRay.Rus.HDCLUB.mkv
Формат : Matroska
Версия формата : Version 2
Размер файла : 14,1 Гбайт
Продолжительность : 2 ч. 6 м.
Общий поток : 15,9 Мбит/сек
Название фильма : Bagroviy Cvet Snegopada (2009) - Release for HDCLUB
Дата кодирования : UTC 2012-09-15 06:36:21
Программа кодирования : mkvmerge v3.4.0 ('Rapunzel') built on May 15 2010 09:38:20
Библиотека кодирования : libebml v0.8.0 + libmatroska v0.9.0
Видео
Идентификатор : 1
Формат : AVC
Формат/Информация : Advanced Video Codec
Профиль формата : [email protected]
Параметр CABAC формата : Да
Параметр ReFrames формата : 4 кадра
Идентификатор кодека : V_MPEG4/ISO/AVC
Продолжительность : 2 ч. 6 м.
Битрейт : 14,1 Мбит/сек
Ширина : 1920 пикселей
Высота : 1080 пикселей
Соотношение сторон : 16:9
Режим частоты кадров : Постоянный
Частота кадров : 23,976 кадра/сек
Цветовое пространство : YUV
Субдискретизация насыщенности : 4:2:0
Битовая глубина : 8 бит
Тип развёртки : Прогрессивная
Бит/(Пиксели*Кадры) : 0.283
Размер потока : 12,4 Гбайт (89%)
Заголовок : Release for HDCLUB
Библиотека кодирования : x264 core 125 r2208 d9d2288
Настройки программы : cabac=1 / ref=4 / deblock=1:-3:-3 / analyse=0x3:0x113 / me=umh / subme=10 / psy=1 / psy_rd=1.00:0.00 / mixed_ref=1 / me_range=32 / chroma_me=1 / trellis=2 / 8x8dct=1 / cqm=0 / deadzone=21,11 / fast_pskip=0 / chroma_qp_offset=-2 / threads=18 / lookahead_threads=3 / sliced_threads=0 / nr=0 / decimate=0 / interlaced=0 / bluray_compat=0 / constrained_intra=0 / bframes=8 / b_pyramid=2 / b_adapt=2 / b_bias=0 / direct=3 / weightb=1 / open_gop=0 / weightp=2 / keyint=240 / keyint_min=22 / scenecut=40 / intra_refresh=0 / rc_lookahead=60 / rc=crf / mbtree=0 / crf=19.0 / qcomp=0.60 / qpmin=10 / qpmax=51 / qpstep=4 / vbv_maxrate=50000 / vbv_bufsize=62500 / crf_max=0.0 / nal_hrd=none / ip_ratio=1.40 / pb_ratio=1.30 / aq=1:0.80
Язык : Russian
Default : Нет
Forced : Нет
Коэффициенты матрицы : BT.709
Аудио
Идентификатор : 2
Формат : DTS
Формат/Информация : Digital Theater Systems
Идентификатор кодека : A_DTS
Продолжительность : 2 ч. 6 м.
Вид битрейта : Постоянный
Битрейт : 1510 Кбит/сек
Каналы : 6 каналов
Расположение каналов : Front: L C R, Side: L R, LFE
Частота : 48,0 КГц
Битовая глубина : 24 бит
Метод сжатия : С потерями
Размер потока : 1,34 Гбайт (9%)
Заголовок : DTS 5.1 @ 1536 kbps
Язык : Russian
Default : Да
Forced : Нет
Меню
00:00:00.000 : en:00:00:00.000
00:07:11.681 : en:00:07:11.681
00:11:14.215 : en:00:11:14.215
00:16:48.466 : en:00:16:48.466
00:21:18.903 : en:00:21:18.903
00:26:36.929 : en:00:26:36.929
00:32:15.058 : en:00:32:15.058
00:38:15.752 : en:00:38:15.752
00:42:37.388 : en:00:42:37.388
00:48:46.465 : en:00:48:46.465
00:55:37.793 : en:00:55:37.793
01:01:48.705 : en:01:01:48.705
01:06:44.375 : en:01:06:44.375
01:13:30.156 : en:01:13:30.156

[Цитировать]



Показать сообщения:    

Текущее время: 05-Дек 11:31

Часовой пояс: UTC + 3


Вы не можете начинать темы
Вы не можете отвечать на сообщения
Вы не можете редактировать свои сообщения
Вы не можете удалять свои сообщения
Вы не можете голосовать в опросах
Вы не можете прикреплять файлы к сообщениям
Вы не можете скачивать файлы

!ВНИМАНИЕ!
Сайт не предоставляет электронные версии произведений, а занимается лишь коллекционированием и каталогизацией ссылок, присылаемых и публикуемых на форуме нашими читателями. Если вы являетесь правообладателем какого-либо представленного материала и не желаете, чтобы ссылка на него находилась в нашем каталоге, свяжитесь с нами, и мы незамедлительно удалим ее. Файлы для обмена на трекере предоставлены пользователями сайта, и администрация не несет ответственности за их содержание. Просьба не заливать файлы, защищенные авторскими правами, а также файлы нелегального содержания!