[ Сегодня идет свободное скачивание без начисления Download ]


Статистика раздачи
Нет
 
   
 
Top  
 
 
Возмещение ущерба / Collateral Damage«Удар террориста не был нацелен на него. Но возмездие будет персональным.»
Год выпуска: 2002
Страна: США
Производство: Warner Bros. Pictures
Жанр: боевик, триллер
Режиссер: Эндрю Дэвис
В ролях: Арнольд Шварценеггер, Франческа Нери, Элиас Котеас, Клифф Кёртис, Джон Легуизамо, Джон Туртурро, Джейсу Гарсия, Тайлер Пози, Майкл Милхоун, Рик Уорси
Перевод: Профессиональный (многоголосый, закадровый)
Субтитры: Отсутствуют
Описание: Власти, расследующие теракт, советуют Горди Брюеру не вмешиваться в это дело. Но он уже вмешался в него самым страшным образом: его жена и сын значатся в списке жертв взрыва бомбы. Брюер, пожарный из Лос-Анджелеса, полон решимости найти неуловимого террориста по кличке Эль Лобо.
Брюер знает, что Эль Лобо нанесет свой следующий удар именно здесь. Но как? Когда? И где именно? В мучительном поиске ответов на эти вопросы ясно только одно: Возмещение ущерба — это тикающая бомба постоянного напряжения.

[kp]4031[/kp]
[imdb]tt0233469[/imdb]
Качество: DVDRip
Продолжительность: 01:44:53
Формат: AVI
Видео кодек: XviD
Аудио кодек: MP3
Видео: 720x416 (1.73:1), 23.976 fps, XviD build 47 ~1475 kbps avg, 0.21 bit/pixel
Аудио: 48 kHz, AC3 Dolby Digital, 1+1 ch, ~384.00 kbps avg
Премьера (мир): 4 февраля 2002
Премьера (РФ): 4 апреля 2002, «Каро-Премьер»

Media Info

Общее
Полное имя                               : C:\Torrents\Раздачи\Возмещение ущерба\Vozmechenie_ucherba_[Neste].avi
Формат                                   : AVI
Формат/Информация                        : Audio Video Interleave
Размер файла                             : 1,37 Гбайт
Продолжительность                        : 1 ч. 44 м.
Общий поток                              : 1866 Кбит/сек
Программа кодирования                    : VirtualDubMod 1.5.4.1 (build 2178/release)
Библиотека кодирования                   : VirtualDubMod build 2178/release
Видео
Идентификатор                            : 0
Формат                                   : MPEG-4 Visual
Профиль формата                          : Advanced Simple@L5
Параметр BVOP формата                    : 1
Параметр QPel формата                    : Нет
Параметр GMC формата                     : Без точки перехода
Параметр матрицы формата                 : Выборочная
Идентификатор кодека                     : XVID
Идентификатор кодека/Подсказка           : XviD
Продолжительность                        : 1 ч. 44 м.
Битрейт                                  : 1475 Кбит/сек
Ширина                                   : 720 пикселей
Высота                                   : 416 пикселей
Соотношение сторон                       : 16:9
Частота кадров                           : 23,976 кадра/сек
Цветовое пространство                    : YUV
Субдискретизация насыщенности            : 4:2:0
Битовая глубина                          : 8 бит
Тип развёртки                            : Прогрессивная
Метод сжатия                             : С потерями
Бит/(Пиксели*Кадры)                      : 0.205
Размер потока                            : 1,08 Гбайт (79%)
Библиотека кодирования                   : XviD 1.2.0.dev47 (UTC 2006-11-01)
Аудио
Идентификатор                            : 1
Формат                                   : AC-3
Формат/Информация                        : Audio Coding 3
Расширение режима                        : CM (complete main)
Идентификатор кодека                     : 2000
Продолжительность                        : 1 ч. 44 м.
Вид битрейта                             : Постоянный
Битрейт                                  : 384 Кбит/сек
Каналы                                   : 6 каналов
Расположение каналов                     : Front: L C R, Side: L R, LFE
Частота                                  : 48,0 КГц
Битовая глубина                          : 16 бит
Метод сжатия                             : С потерями
Задержка видео                           : 11 мс.
Размер потока                            : 288 Мбайт (21%)
Выравнивание                             : Разделение по промежуткам
Продолжительность промежутка             : 96  мс. (2,30 видеокадра)
Время предзагрузки промежутка            : 96  мс.
Язык                                     : Russian
[th]http://torrentsclub.org/pictures/620d16d2c74e42da3a...27f706f.jpg[/th]
[th]http://torrentsclub.org/pictures/481822467a8abe5ff1...02ebdbb.jpg[/th]
[th]http://torrentsclub.org/pictures/0a23f4639159a3131a...fdd69c3.jpg[/th]

[Цитировать]



Показать сообщения:    

Текущее время: 30-Мар 18:38

Часовой пояс: UTC + 6


Вы не можете начинать темы
Вы не можете отвечать на сообщения
Вы не можете редактировать свои сообщения
Вы не можете удалять свои сообщения
Вы не можете голосовать в опросах
Вы не можете прикреплять файлы к сообщениям
Вы не можете скачивать файлы

!ВНИМАНИЕ!
Сайт не предоставляет электронные версии произведений, а занимается лишь коллекционированием и каталогизацией ссылок, присылаемых и публикуемых на форуме нашими читателями. Если вы являетесь правообладателем какого-либо представленного материала и не желаете, чтобы ссылка на него находилась в нашем каталоге, свяжитесь с нами, и мы незамедлительно удалим ее. Файлы для обмена на трекере предоставлены пользователями сайта, и администрация не несет ответственности за их содержание. Просьба не заливать файлы, защищенные авторскими правами, а также файлы нелегального содержания!