[ Сегодня идет свободное скачивание без начисления Download ]


Статистика раздачи
Нет
 
   
 
 
 

Слоган: «Новый год атакует!»
Год выпуска: 2010
Страна: Россия
Производство: Bazelevs
Жанр: Комедия
Режиссёр: Тимур Бекмамбетов, Александр Войтинский, Александр Андрющенко
В ролях: Иван Ургант, Сергей Светлаков, Вера Брежнева, Алина Булынко, Сергей Гармаш, Артур Смольянинов, Екатерина Вилкова, Мария Порошина, Дато Бахтадзе, Александр Головин
Перевод: Оригинал
Субтитры: Отсутствуют

События самой новогодней комедии ЁЛКИ происходят в 11 городах: Калининграде, Казани, Перми, Уфе, Бавлах, Екатеринбурге, Красноярске, Якутске, Новосибирске, Санкт-Петербурге и Москве. Герои фильма — таксист и поп-дива, бизнесмен и актер, сноубордист и лыжник, студент и пенсионерка, пожарный и директриса, вор и милиционер, гастарбайтер и президент России. Все они оказываются в самый канун Нового года в очень непростой ситуации, выйти из которой им поможет только чудо… или Теория шести рукопожатий, согласно которой каждый человек на земле знает другого через шесть знакомых.

Ёлки Дилогия(2010 - 2011) H.264. BDRip. [1080p]Ёлки (2010) H.264. BDRip. [1080p].mkv
General
Unique ID : 204100515512515806183116076854683848974 (0x998C5456C5BF8D3FA143C572014F510E)
Complete name : Ёлки Дилогия(2010 - 2011) H.264. BDRip. [1080p]Ёлки (2010) H.264. BDRip. [1080p].mkv
Format : Matroska
Format version : Version 1
File size : 8.30 GiB
Duration : 1h 28mn
Overall bit rate mode : Variable
Overall bit rate : 13.4 Mbps
Encoded date : UTC 2011-01-23 00:03:45
Writing application : mkvmerge v2.4.0 ('Fumbling Towards Ecstasy') built on Oct 11 2008 20:13:15
Writing library : libebml v0.7.7 + libmatroska v0.8.1
Video #1
ID : 1
Format : AVC
Format/Info : Advanced Video Codec
Format profile : [email protected]
Format settings, CABAC : Yes
Format settings, ReFrames : 1 frame
Codec ID : V_MPEG4/ISO/AVC
Duration : 1h 28mn
Bit rate : 10.7 Mbps
Width : 1 920 pixels
Height : 816 pixels
Display aspect ratio : 2.35:1
Frame rate : 23.976 fps
Color space : YUV
Chroma subsampling : 4:2:0
Bit depth : 8 bits
Scan type : Progressive
Bits/(Pixel*Frame) : 0.284
Stream size : 6.89 GiB (83%)
Writing library : x264 core 65 r999kMod cc51047
Encoding settings : cabac=1 / ref=1 / deblock=1:0:0 / analyse=0x1:0x111 / me=hex / subme=6 / psy_rd=1.0:0.0 / mixed_ref=0 / me_range=16 / chroma_me=1 / trellis=0 / 8x8dct=0 / cqm=0 / deadzone=21,11 / chroma_qp_offset=-2 / threads=2 / thread_queue=2 / nr=0 / decimate=1 / mbaff=0 / bframes=0 / keyint=250 / keyint_min=25 / scenecut=40(pre) / rc=2pass / bitrate=10656 / ratetol=1.0 / qcomp=0.60 / qpmin=10 / qpmax=51 / qpstep=4 / cplxblur=20.0 / qblur=0.5 / ip_ratio=1.40 / aq=1:1.00
Default : Yes
Forced : No
Audio #2
ID : 2
Format : AC-3
Format/Info : Audio Coding 3
Mode extension : CM (complete main)
Codec ID : A_AC3
Duration : 1h 28mn
Bit rate mode : Constant
Bit rate : 448 Kbps
Channel(s) : 6 channels
Channel positions : Front: L C R, Side: L R, LFE
Sampling rate : 48.0 KHz
Bit depth : 16 bits
Compression mode : Lossy
Stream size : 285 MiB (3%)
Default : Yes
Forced : No
Audio #3
ID : 3
Format : DTS
Format/Info : Digital Theater Systems
Format profile : MA / Core
Codec ID : A_DTS
Duration : 1h 28mn
Bit rate mode : Variable
Bit rate : 1 561 Kbps / 1 510 Kbps
Channel(s) : 6 channels
Channel positions : Front: L C R, Side: L R, LFE
Sampling rate : 48.0 KHz
Bit depth : 16 bits
Compression mode : Lossless / Lossy
Default : No
Forced : No

Премьеры

Премьера (мир): 13 декабря 2010
Премьера (РФ): 16 декабря 2010
Релиз на DVD: 20 января 2011
Релиз на Blu-Ray: 20 января 2011
Качество: BDRip 1080p
Продолжительность: 01:27:28 час.
Формат: MKV
Видео кодек: H.264
Аудио кодек: AС3
Видео: 1920x816 (2.35:1), 24 fps, H.264 ~10.7 Mbps avg, 0.284 bit/pixel
Аудио 1: 48 kHz, AC-3, 6 ch, ~448.00 kbps avg
Аудио 2: 48 kHz, DTS, 6 ch, ~1561.00 / 1510.00 kbps avg[th]http://img.beetor.org/upload/images/DGUJ.jpg[/th]
[th]http://img.beetor.org/upload/images/4ION.jpg[/th]
[th]http://img.beetor.org/upload/images/85YA.jpg[/th]

[Цитировать]



Показать сообщения:    

Текущее время: 05-Дек 05:32

Часовой пояс: UTC + 3


Вы не можете начинать темы
Вы не можете отвечать на сообщения
Вы не можете редактировать свои сообщения
Вы не можете удалять свои сообщения
Вы не можете голосовать в опросах
Вы не можете прикреплять файлы к сообщениям
Вы не можете скачивать файлы

!ВНИМАНИЕ!
Сайт не предоставляет электронные версии произведений, а занимается лишь коллекционированием и каталогизацией ссылок, присылаемых и публикуемых на форуме нашими читателями. Если вы являетесь правообладателем какого-либо представленного материала и не желаете, чтобы ссылка на него находилась в нашем каталоге, свяжитесь с нами, и мы незамедлительно удалим ее. Файлы для обмена на трекере предоставлены пользователями сайта, и администрация не несет ответственности за их содержание. Просьба не заливать файлы, защищенные авторскими правами, а также файлы нелегального содержания!