[ Сегодня идет свободное скачивание без начисления Download ]


Статистика раздачи
Нет
 
   
 
Top  
 
 
« Идеальный голос / Pitch Perfect »« Get Pitch Slapped »- Информация :

» Год выпуска: 2012
» Страна: США
» Производство: Brownstone Productions (III), Gold Circle Films
» Жанр: комедия, музыка
» Режиссёр: Джейсон Мур
» В ролях: Анна Кендрик, Скайлар Эстин, Бен Платт, Бриттани Сноу, Анна Кэмп, Ребел Уилсон, Алексис Кнапп, Эстер Дин, Хана Мэй Ли, Келли Джэйкл и другие
» Перевод: Авторский (одноголосый, закадровый)[zamez]
» Субтитры: Нет
Описание :
» Краткое содержание: Картина основывается на книге Мики Рэпкина «Пой идеально: Погоня за славной вокалиста а капелла», в которой рассказывается о студентке, внезапно обнаружившей в себе страсть к пению а капелла, то есть, без музыкального сопровождения.- -Тех - данные :
» Качество: HDRip
» Продолжительность: 01:52:07 | |
» Формат: AVI
» Видео кодек: XviD
» Аудио кодек: Ac3
» Видео: 720x384, (1,85:1), 23,976 fps, XviD, 1740 kbps avg, 0.262 bit/pixel
» Аудио #1: 48.0 khz, Ac3, 6 ch(L, C, R) + LFE, 448 kbps | | - Russian
-

Премьеры

» Дата премьеры (мир): 28 сентября 2012 «
» Сценарий: Кэй Кэннон, Mickey Rapkin «
» Релиз на DVD: 4 апреля 2013, «Двадцатый Век Фокс СНГ»«

MediaInfo

Общее
Полное имя                               : C:\Скачанные Файлы\Хранение раздач\Идеальный Голос_2012_HDRip_1700MB.avi
Формат                                   : AVI
Формат/Информация                        : Audio Video Interleave
Размер файла                             : 1,72 Гбайт
Продолжительность                        : 1 ч. 52 м.
Общий поток                              : 2197 Кбит/сек
Программа кодирования                    : VirtualDubMod 1.5.10.2 (build 2540/release)
Библиотека кодирования                   : VirtualDubMod build 2540/release
Видео
Идентификатор                            : 0
Формат                                   : MPEG-4 Visual
Профиль формата                          : Advanced [email protected]
Параметр BVOP формата                    : 2
Параметр QPel формата                    : Нет
Параметр GMC формата                     : Без точки перехода
Параметр матрицы формата                 : Default (MPEG)
Режим смешивания                         : Сжатый битовый поток
Идентификатор кодека                     : XVID
Идентификатор кодека/Подсказка           : XviD
Продолжительность                        : 1 ч. 52 м.
Битрейт                                  : 1740 Кбит/сек
Ширина                                   : 720 пикселей
Высота                                   : 384 пикселя
Соотношение сторон                       : 1,85:1
Частота кадров                           : 23,976 кадра/сек
Цветовое пространство                    : YUV
Субдискретизация насыщенности            : 4:2:0
Битовая глубина                          : 8 бит
Тип развёртки                            : Прогрессивная
Метод сжатия                             : С потерями
Бит/(Пиксели*Кадры)                      : 0.262
Размер потока                            : 1,36 Гбайт (79%)
Библиотека кодирования                   : XviD 1.2.1 (UTC 2008-12-04)
Аудио
Идентификатор                            : 1
Формат                                   : AC-3
Формат/Информация                        : Audio Coding 3
Расширение режима                        : CM (complete main)
Параметр Endianness формата              : Big
Идентификатор кодека                     : 2000
Продолжительность                        : 1 ч. 52 м.
Вид битрейта                             : Постоянный
Битрейт                                  : 448 Кбит/сек
Каналы                                   : 6 каналов
Расположение каналов                     : Front: L C R, Side: L R, LFE
Частота                                  : 48,0 КГц
Битовая глубина                          : 16 бит
Метод сжатия                             : С потерями
Размер потока                            : 359 Мбайт (20%)
Выравнивание                             : Разделение по промежуткам
Продолжительность промежутка             : 42  мс. (1,00 видеокадр)
Время предзагрузки промежутка            : 500  мс.
-[th]http://torrentsclub.org/pictures/ab3e6027f77d169bf8...bb1e431.png[/th]-

[Цитировать]



Показать сообщения:    

Текущее время: 05-Дек 17:40

Часовой пояс: UTC + 3


Вы не можете начинать темы
Вы не можете отвечать на сообщения
Вы не можете редактировать свои сообщения
Вы не можете удалять свои сообщения
Вы не можете голосовать в опросах
Вы не можете прикреплять файлы к сообщениям
Вы не можете скачивать файлы

!ВНИМАНИЕ!
Сайт не предоставляет электронные версии произведений, а занимается лишь коллекционированием и каталогизацией ссылок, присылаемых и публикуемых на форуме нашими читателями. Если вы являетесь правообладателем какого-либо представленного материала и не желаете, чтобы ссылка на него находилась в нашем каталоге, свяжитесь с нами, и мы незамедлительно удалим ее. Файлы для обмена на трекере предоставлены пользователями сайта, и администрация не несет ответственности за их содержание. Просьба не заливать файлы, защищенные авторскими правами, а также файлы нелегального содержания!