[ Сегодня идет свободное скачивание без начисления Download ]


Статистика раздачи
Нет
 
   
 
Top  
 
 
Нимфоманка: Часть 2 / Nymphomaniac: Vol. II (2013) BDRip 1080p Информация о фильме
Название: Нимфоманка: Часть 2
Оригинальное название: Nymphomaniac: Vol. II
Год выхода: 2013
Жанр: Драма, эротика
Режиссер: Ларс фон Триер
В ролях: Шарлотта Генсбур, Стэйси Мартин, Стеллан Скарсгард, Шайа ЛаБаф, Кристиан Слэйтер, Ума Турман, Софи Кеннеди Кларк, Йенс Альбинус, Николас Бро, Фелисити Гилберт
О фильме:
Продолжение истории нимфоманки по имени Джо, чья жизнь была полна множества эротических переживаний, впечатлений и опытов. Она рассказывает о себе немолодому одинокому холостяку Селигману, который наткнулся на нее, избитую и находящуюся в полубессознательном состоянии, в переулке, доставил к себе домой и выходил…

Страна: Дания, Германия, Франция, Бельгия, Великобритания
Продолжительность: 02:58:11
Перевод: Любительский многоголосый - HamsterStudio
Файл
Кодек: MPEG4 Video (H264)
Качество: BDRip 1080p | L
Видео: 1920x816, 8248 Kbps, 24.000fp
Звук:
Аудио #1: AC-3, 2 ch, 192 kbps (Rus)
Аудио #2: DTS, 6 ch, 1509 kbps (Eng)
Субтитры: Русские, английские

Mediainfo

Общее
Уникальный идентификатор : 178117269240723478392009327836189587624 (0x86002363FACE3391AF218E3A8D7A78A8)
Полное имя : D:FilmNymphomaniac.Vol.II.2013.DC.BDRip.1080p.mkv
Формат : Matroska
Версия формата : Version 2
Размер файла : 12,6 Гбайт
Продолжительность : 2 ч. 58 м.
Общий поток : 10,2 Мбит/сек
Название фильма : -=WALLEDOL=-
Дата кодирования : UTC 2016-03-14 18:26:48
Программа кодирования : mkvmerge v4.0.0 ('The Stars were mine') сборка от Jun 6 2010 16:18:42
Библиотека кодирования : libebml v1.0.0 + libmatroska v1.0.0
Видео
Идентификатор : 1
Формат : AVC
Формат/Информация : Advanced Video Codec
Профиль формата : High@L4.1
Параметр CABAC формата : Да
Параметр ReFrames формата : 5 кадров
Идентификатор кодека : V_MPEG4/ISO/AVC
Продолжительность : 2 ч. 58 м.
Битрейт : 8248 Кбит/сек
Ширина : 1920 пикселей
Высота : 816 пикселей
Соотношение сторон : 2,35:1
Режим частоты кадров : Постоянный
Частота кадров : 24,000 кадра/сек
Цветовое пространство : YUV
Субдискретизация насыщенности : 4:2:0
Битовая глубина : 8 бит
Тип развёртки : Прогрессивная
Бит/(Пиксели*Кадры) : 0.219
Размер потока : 10,3 Гбайт (81%)
Заголовок : Nymphomaniac.Vol.II.2013.Directors.Cut.1080p
Библиотека кодирования : x264 core 142 r2479 dd79a61
Настройки программы : cabac=1 / ref=5 / deblock=1:-1:-1 / analyse=0x3:0x133 / me=umh / subme=7 / psy=1 / psy_rd=1.00:0.15 / mixed_ref=1 / me_range=16 / chroma_me=1 / trellis=1 / 8x8dct=1 / cqm=0 / deadzone=21,11 / fast_pskip=0 / chroma_qp_offset=-3 / threads=18 / lookahead_threads=3 / sliced_threads=0 / nr=0 / decimate=1 / interlaced=0 / bluray_compat=0 / constrained_intra=0 / bframes=3 / b_pyramid=2 / b_adapt=1 / b_bias=0 / direct=3 / weightb=1 / open_gop=0 / weightp=2 / keyint=240 / keyint_min=24 / scenecut=40 / intra_refresh=0 / rc_lookahead=50 / rc=crf / mbtree=1 / crf=20.0 / qcomp=0.60 / qpmin=10 / qpmax=51 / qpstep=4 / ip_ratio=1.40 / aq=1:1.00
Язык : English
Default : Нет
Forced : Нет
Аудио #1
Идентификатор : 2
Формат : AC-3
Формат/Информация : Audio Coding 3
Расширение режима : CM (complete main)
Параметр Endianness формата : Big
Идентификатор кодека : A_AC3
Продолжительность : 2 ч. 58 м.
Вид битрейта : Постоянный
Битрейт : 192 Кбит/сек
Каналы : 2 канала
Расположение каналов : Front: L R
Частота : 48,0 КГц
Частота кадров : 31,250 кадров/сек (1536 spf)
Метод сжатия : С потерями
Размер потока : 245 Мбайт (2%)
Заголовок : MVO HamsterStudio
Язык : Russian
Default : Да
Forced : Да
Аудио #2
Идентификатор : 3
Формат : DTS
Формат/Информация : Digital Theater Systems
Режим : 16
Параметр Endianness формата : Big
Идентификатор кодека : A_DTS
Продолжительность : 2 ч. 58 м.
Вид битрейта : Постоянный
Битрейт : 1509 Кбит/сек
Каналы : 6 каналов
Расположение каналов : Front: L C R, Side: L R, LFE
Частота : 48,0 КГц
Частота кадров : 93,750 кадра/сек (512 spf)
Битовая глубина : 24 бит
Метод сжатия : С потерями
Задержка видео : 11 мс.
Размер потока : 1,88 Гбайт (15%)
Язык : English
Default : Нет
Forced : Нет
Текст #1
Идентификатор : 4
Формат : UTF-8
Идентификатор кодека : S_TEXT/UTF8
Идентификатор кодека/Информация : UTF-8 Plain Text
Заголовок : Full
Язык : Russian
Default : Нет
Forced : Нет
Текст #2
Идентификатор : 5
Формат : UTF-8
Идентификатор кодека : S_TEXT/UTF8
Идентификатор кодека/Информация : UTF-8 Plain Text
Заголовок : Full
Язык : English
Default : Нет
Forced : Нет
Меню
00:00:00.000 : en:00:00:00.000
00:09:10.792 : en:00:09:10.792
00:30:05.708 : en:00:30:05.708
00:39:09.750 : en:00:39:09.750
00:49:13.292 : en:00:49:13.292
01:10:42.458 : en:01:10:42.458
01:28:08.375 : en:01:28:08.375
01:59:55.042 : en:01:59:55.042
02:10:16.292 : en:02:10:16.292
02:24:12.083 : en:02:24:12.083
02:43:50.000 : en:02:43:50.000
02:53:34.167 : en:02:53:34.167

Доп. инфо

Перевод: Любительский многоголосый - HamsterStudio
Озвучка: Алексей Соловьёв, Анастасия Снегирева, Андрей Жариков и Ариса Лебедева
Монтаж и сведение звука: Роман Мырон
сборка рипа и подгон русской дорожки - walledol
рекламу в начале убрал, больше не заметил (если что не хайте)

Скриншоты

[Цитировать]



Показать сообщения:    

Текущее время: 11-Дек 05:20

Часовой пояс: UTC + 3


Вы не можете начинать темы
Вы не можете отвечать на сообщения
Вы не можете редактировать свои сообщения
Вы не можете удалять свои сообщения
Вы не можете голосовать в опросах
Вы не можете прикреплять файлы к сообщениям
Вы не можете скачивать файлы

!ВНИМАНИЕ!
Сайт не предоставляет электронные версии произведений, а занимается лишь коллекционированием и каталогизацией ссылок, присылаемых и публикуемых на форуме нашими читателями. Если вы являетесь правообладателем какого-либо представленного материала и не желаете, чтобы ссылка на него находилась в нашем каталоге, свяжитесь с нами, и мы незамедлительно удалим ее. Файлы для обмена на трекере предоставлены пользователями сайта, и администрация не несет ответственности за их содержание. Просьба не заливать файлы, защищенные авторскими правами, а также файлы нелегального содержания!