[ Сегодня идет свободное скачивание без начисления Download ]


Статистика раздачи
Нет
 
   
 
Top  
 
 
Сайлент Хилл / Silent Hill«We've been expecting you.» Год выпуска: 2006
Страна: Канада, Франция, Япония, США
Производство: Silent Hill DCP Inc.
Жанр: Ужасы, приключения
Режиссёр: Кристоф Ганс
В ролях: Шон Бин, Кит Харингтон, Кэрри-Энн Мосс, Малкольм МакДауэлл, Рада Митчелл, Дебора Кара Ангер, Мартин Донован
Перевод: Дублированный + Оригинал (Английский)
Озвучка: Нет
Субтитры: Русские, Английские (UTF-8)
Описание: Молодая мать, отчаявшись найти лекарство от таинственного заболевания своей дочери Шэрон, отказывается отдать ее в психиатрическую лечебницу. Вместе с Шэрон она отправляется в Сайлент Хилл, город, название которого ее дочь постоянно твердит во сне.
Несмотря на сопротивление мужа, Роуз убеждена, что найдет там ответы, в которых так нуждается. Но когда они подъезжают к заброшенному городу, на дороге появляется таинственная фигура, Роуз резко тормозит, и машина попадает в аварию… Придя в себя, она обнаруживает, что Шэрон исчезла…


Качество: BDRip-AVC
Продолжительность: 02:05:19
Формат: MKV
Главы: Есть
Видео кодек: AVC [email protected]
Аудио кодек: AC3
Видео: 1920x816 (2,35:1), 23.976 fps, ~7587 kbps, 0.202 bit/ pixel
Аудио №1: 48 kHz, AC-3, 6 ch, ~640 kbps (Rus)
Аудио №2: 48 kHz, AC-3, 6 ch, ~640 kbps (Eng)

MediaInfo

Общее
Уникальный идентификатор : 179600532275982581652332539720193929448 (0x871DCDE782B116ED95F1FA1F79ADF0E8)
Полное имя : Silent.Hill.2006.BDRip.1080p.Rus.Eng.mkv
Формат : Matroska
Версия формата : Version 2
Размер файла : 7,76 Гбайт
Продолжительность : 2 ч. 5 м.
Общий поток : 8865 Кбит/сек
Название фильма : Сайлент Хилл / Silent Hill (2006)
Дата кодирования : UTC 2012-10-24 13:25:27
Программа кодирования : mkvmerge v5.8.0 ('No Sleep / Pillow') built on Sep 2 2012 15:37:04
Библиотека кодирования : libebml v1.2.3 + libmatroska v1.3.0
Видео
Идентификатор : 1
Формат : AVC
Формат/Информация : Advanced Video Codec
Профиль формата : [email protected]
Параметр CABAC формата : Да
Параметр ReFrames формата : 5 кадров
Идентификатор кодека : V_MPEG4/ISO/AVC
Продолжительность : 2 ч. 5 м.
Битрейт : 7587 Кбит/сек
Ширина : 1920 пикселей
Высота : 816 пикселей
Соотношение сторон : 2,35:1
Частота кадров : 23,976 кадра/сек
Цветовое пространство : YUV
Субдискретизация насыщенности : 4:2:0
Битовая глубина : 8 бит
Тип развёртки : Прогрессивная
Бит/(Пиксели*Кадры) : 0.202
Размер потока : 6,49 Гбайт (84%)
Заголовок : Release by AlexKa
Библиотека кодирования : x264 core 128 r2216 198a7ea
Настройки программы : cabac=1 / ref=5 / deblock=1:0:0 / analyse=0x3:0x133 / me=umh / subme=10 / psy=1 / psy_rd=1.00:0.10 / mixed_ref=1 / me_range=48 / chroma_me=1 / trellis=2 / 8x8dct=1 / cqm=0 / deadzone=21,11 / fast_pskip=0 / chroma_qp_offset=-3 / threads=12 / lookahead_threads=2 / sliced_threads=0 / nr=0 / decimate=0 / interlaced=0 / bluray_compat=0 / constrained_intra=0 / bframes=5 / b_pyramid=2 / b_adapt=2 / b_bias=0 / direct=3 / weightb=1 / open_gop=0 / weightp=2 / keyint=240 / keyint_min=23 / scenecut=40 / intra_refresh=0 / rc=2pass / mbtree=0 / bitrate=7587 / ratetol=1.0 / qcomp=0.60 / qpmin=0 / qpmax=69 / qpstep=4 / cplxblur=20.0 / qblur=0.5 / ip_ratio=1.40 / pb_ratio=1.30 / aq=1:0.80
Язык : English
Аудио #1
Идентификатор : 2
Формат : AC-3
Формат/Информация : Audio Coding 3
Расширение режима : CM (complete main)
Идентификатор кодека : A_AC3
Продолжительность : 2 ч. 5 м.
Вид битрейта : Постоянный
Битрейт : 640 Кбит/сек
Каналы : 6 каналов
Расположение каналов : Front: L C R, Side: L R, LFE
Частота : 48,0 КГц
Битовая глубина : 16 бит
Метод сжатия : С потерями
Размер потока : 574 Мбайт (7%)
Заголовок : Rus
Язык : Russian
Аудио #2
Идентификатор : 3
Формат : AC-3
Формат/Информация : Audio Coding 3
Расширение режима : CM (complete main)
Идентификатор кодека : A_AC3
Продолжительность : 2 ч. 5 м.
Вид битрейта : Постоянный
Битрейт : 640 Кбит/сек
Каналы : 6 каналов
Расположение каналов : Front: L C R, Side: L R, LFE
Частота : 48,0 КГц
Битовая глубина : 16 бит
Метод сжатия : С потерями
Размер потока : 574 Мбайт (7%)
Заголовок : Eng
Язык : English
Текст #1
Идентификатор : 4
Формат : UTF-8
Идентификатор кодека : S_TEXT/UTF8
Идентификатор кодека/Информация : UTF-8 Plain Text
Заголовок : Rus
Язык : Russian
Текст #2
Идентификатор : 5
Формат : UTF-8
Идентификатор кодека : S_TEXT/UTF8
Идентификатор кодека/Информация : UTF-8 Plain Text
Заголовок : Eng
Язык : English
Меню
00:00:00.000 : :Ночные страхи
00:03:24.871 : :Необычная поездка
00:08:38.210 : :Нет на карте
00:13:08.522 : :Закрытая дорога
00:17:20.791 : :Страшные находки
00:23:02.123 : :"Моё!"
00:25:42.102 : :Вмешательство полиции
00:33:42.059 : :Безмолвный город
00:34:36.797 : :Поиски
00:37:50.699 : :Не одна
00:43:50.665 : :Ночные существа
00:47:15.531 : :"Она здесь"
00:53:45.004 : :"Все будет в порядке"
00:56:02.513 : :Сберечь веру
01:01:16.085 : :Первое сожжение
01:04:20.695 : :Призраки
01:08:18.139 : :Тревога
01:11:20.488 : :Прибежище грешников
01:13:45.839 : :"Я не могу вам помочь"
01:16:50.139 : :Откуда нет возврата
01:27:24.031 : :История Алессы
01:33:52.510 : :Смерть
01:39:55.725 : :Вновь обретенная невинность
01:43:02.070 : :Ужасная судьба
01:47:57.070 : :Кульминация
01:52:06.070 : :Материнский инстинкт
01:54:02.570 : :Возвращение домой
01:57:55.270 : :Финальные титры

[Цитировать]



Показать сообщения:    

Текущее время: 04-Дек 21:18

Часовой пояс: UTC + 3


Вы не можете начинать темы
Вы не можете отвечать на сообщения
Вы не можете редактировать свои сообщения
Вы не можете удалять свои сообщения
Вы не можете голосовать в опросах
Вы не можете прикреплять файлы к сообщениям
Вы не можете скачивать файлы

!ВНИМАНИЕ!
Сайт не предоставляет электронные версии произведений, а занимается лишь коллекционированием и каталогизацией ссылок, присылаемых и публикуемых на форуме нашими читателями. Если вы являетесь правообладателем какого-либо представленного материала и не желаете, чтобы ссылка на него находилась в нашем каталоге, свяжитесь с нами, и мы незамедлительно удалим ее. Файлы для обмена на трекере предоставлены пользователями сайта, и администрация не несет ответственности за их содержание. Просьба не заливать файлы, защищенные авторскими правами, а также файлы нелегального содержания!