[ Сегодня идет свободное скачивание без начисления Download ]


Статистика раздачи
Нет
 
   
 
Top  
 
 
Девять / 9 (2009) BDRip 720p | 60 fps Информация о фильме
Русское название: Девять / Девятый
Оригинальное название: Nine / Ninth / 9
Год выхода: 2009
Жанр: мультфильм, фантастика, фэнтези, боевик, триллер, драма, детектив, приключения
Режиссер: Шэйн Экер
Выпущено: США, Германия
Продолжительность: 01:19:24
Перевод: Дублированный, Авторский (одноголосый закадровый)
Роли озвучивали: Кристофер Пламмер, Мартин Ландау, Джон К. Райли, Криспин Гловер, Дженнифер Коннелли, Фред Татаскьор, Элайджа Вуд, Алан Оппенхаймер, Том Кэйн, Хелен Уилсон
Роли дублировали: Геннадий Хазанов, Валерий Золотухин, Алексей Долматов, Александр Пушной, Тутта Ларсен, Владимир Турчинский, Константин Хабенский, Алексей Колган
Сюжет фильма
Человек создал искусственный разум, но не смог дать механизму душу. И однажды его творение подняло руку на своего создателя…
В страшной войне человечество было уничтожено механическими монстрами. Перед тем как погибнуть, профессор, придумавший умные машины, сшил девять тряпичных кукол, вложив в них человеческие души. Девять Героев. Девять Характеров. Только вместе, помогая друг другу, им суждено выжить. Выжить, чтобы выполнить свою миссию…
Файл
Качество: BDRip 720p (исходник Blu-ray Disc)
Контейнер: MKV (расширение файла)
Видео: 1280x694, 4004 Кбит/сек, 59.940 кадр/сек, AVC, x264, High@L4.1, 1.85:1, 0.075 Бит/[Пиксели*Кадры]
Аудио 1: AC-3, 448 Кбит/сек, 6 канала(ов), 48,0 КГц - Дублированный / Русский
Аудио 2: AC-3, 384 Кбит/сек, 6 канала(ов), 48,0 КГц - Одноголосый закадровый, Дмитрий Пучков (Гоблин) / Русский
Аудио 3: AC-3, 640 Кбит/сек, 6 канала(ов), 48,0 КГц - Оригинал / Английский
Субтитры: Русские | Полные, Английские | Полные
Форсированные субтитры: Нет
Чаптеры (Главы): Есть (Подписаны (Eng))

Автор Рипа:

MediaInfo

Format : Matroska
Format version : Version 2
File size : 3.10 GiB
Duration : 1h 19mn
Overall bit rate : 5 588 Kbps
Movie name : Девять.(2009).BDRip.720p.[envy].[60fps]
Encoded date : UTC 2016-03-05 16:00:44
Writing application : mkvmerge v5.8.0 ('No Sleep / Pillow') built on Sep 2 2012 15:37:04
Writing library : libebml v1.2.3 + libmatroska v1.3.0
Video
ID : 1
Format : AVC
Format/Info : Advanced Video Codec
Format profile : High@L4.1
Format settings, CABAC : Yes
Format settings, ReFrames : 9 frames
Codec ID : V_MPEG4/ISO/AVC
Duration : 1h 19mn
Bit rate : 4 004 Kbps
Width : 1 280 pixels
Height : 694 pixels
Display aspect ratio : 1.85:1
Frame rate mode : Constant
Frame rate : 59.940 (60000/1001) fps
Color space : YUV
Chroma subsampling : 4:2:0
Bit depth : 8 bits
Scan type : Progressive
Bits/(Pixel*Frame) : 0.075
Stream size : 2.22 GiB (72%)
Title : Девять.(2009).BDRip.720p.[envy].[60fps]
Writing library : x264 core 146 r2538 121396c
Encoding settings : cabac=1 / ref=9 / deblock=1:0:0 / analyse=0x3:0x113 / me=umh / subme=10 / psy=1 / psy_rd=1.00:0.00 / mixed_ref=1 / me_range=24 / chroma_me=1 / trellis=2 / 8x8dct=1 / cqm=0 / deadzone=21,11 / fast_pskip=0 / chroma_qp_offset=-2 / threads=12 / lookahead_threads=1 / sliced_threads=0 / nr=0 / decimate=1 / interlaced=0 / bluray_compat=0 / constrained_intra=0 / bframes=6 / b_pyramid=2 / b_adapt=2 / b_bias=0 / direct=3 / weightb=1 / open_gop=0 / weightp=2 / keyint=250 / keyint_min=25 / scenecut=40 / intra_refresh=0 / rc_lookahead=40 / rc=crf / mbtree=0 / crf=18.0 / qcomp=0.60 / qpmin=0 / qpmax=69 / qpstep=4 / vbv_maxrate=14000 / vbv_bufsize=14000 / crf_max=0.0 / nal_hrd=none / filler=0 / ip_ratio=1.40 / pb_ratio=1.30 / aq=3:1.00
Language : English
Default : Yes
Forced : No
Audio #1
ID : 2
Format : AC-3
Format/Info : Audio Coding 3
Mode extension : CM (complete main)
Format settings, Endianness : Big
Codec ID : A_AC3
Duration : 1h 19mn
Bit rate mode : Constant
Bit rate : 448 Kbps
Channel(s) : 6 channels
Channel positions : Front: L C R, Side: L R, LFE
Sampling rate : 48.0 KHz
Frame rate : 31.250 fps (1536 spf)
Compression mode : Lossy
Stream size : 254 MiB (8%)
Title : Dub
Language : Russian
Default : Yes
Forced : No
Audio #2
ID : 3
Format : AC-3
Format/Info : Audio Coding 3
Mode extension : CM (complete main)
Format settings, Endianness : Big
Codec ID : A_AC3
Duration : 1h 19mn
Bit rate mode : Constant
Bit rate : 384 Kbps
Channel(s) : 6 channels
Channel positions : Front: L C R, Side: L R, LFE
Sampling rate : 48.0 KHz
Frame rate : 31.250 fps (1536 spf)
Compression mode : Lossy
Stream size : 218 MiB (7%)
Title : AVO Goblin
Language : Russian
Default : No
Forced : No
Audio #3
ID : 4
Format : AC-3
Format/Info : Audio Coding 3
Mode extension : CM (complete main)
Format settings, Endianness : Big
Codec ID : A_AC3
Duration : 1h 19mn
Bit rate mode : Constant
Bit rate : 640 Kbps
Channel(s) : 6 channels
Channel positions : Front: L C R, Side: L R, LFE
Sampling rate : 48.0 KHz
Frame rate : 31.250 fps (1536 spf)
Compression mode : Lossy
Stream size : 363 MiB (11%)
Title : Eng
Language : English
Default : No
Forced : No
Text #1
ID : 5
Format : UTF-8
Codec ID : S_TEXT/UTF8
Codec ID/Info : UTF-8 Plain Text
Title : Rus full
Language : Russian
Default : No
Forced : No
Text #2
ID : 6
Format : UTF-8
Codec ID : S_TEXT/UTF8
Codec ID/Info : UTF-8 Plain Text
Title : Eng full
Language : English
Default : No
Forced : No
Menu
00:00:00.000 : en:Life Must Go On
00:04:06.913 : en:Not Alone
00:09:51.174 : en:Still Alive
00:12:08.436 : en:World of Chaos
00:15:48.072 : en:In the Watchtower
00:17:36.889 : en:Going after 2
00:20:38.154 : en:The Cat Beast
00:24:20.000 : en:Awaking the Machine
00:29:07.746 : en:Looking for Answers
00:33:38.683 : en:Guided by Fear
00:35:48.563 : en:The Winged Beast
00:40:03.860 : en:Dark Science
00:44:46.183 : en:The Seamstress
00:48:05.382 : en:No More Hiding
00:52:49.833 : en:They’re Coming
00:55:05.427 : en:Trapped
00:59:44.498 : en:Back to the Source
01:03:40.567 : en:Knowing the Truth
01:08:27.437 : en:Free Now
01:12:16.332 : en:End Titles

[Цитировать]



Показать сообщения:    

Текущее время: 11-Дек 13:02

Часовой пояс: UTC + 3


Вы не можете начинать темы
Вы не можете отвечать на сообщения
Вы не можете редактировать свои сообщения
Вы не можете удалять свои сообщения
Вы не можете голосовать в опросах
Вы не можете прикреплять файлы к сообщениям
Вы не можете скачивать файлы

!ВНИМАНИЕ!
Сайт не предоставляет электронные версии произведений, а занимается лишь коллекционированием и каталогизацией ссылок, присылаемых и публикуемых на форуме нашими читателями. Если вы являетесь правообладателем какого-либо представленного материала и не желаете, чтобы ссылка на него находилась в нашем каталоге, свяжитесь с нами, и мы незамедлительно удалим ее. Файлы для обмена на трекере предоставлены пользователями сайта, и администрация не несет ответственности за их содержание. Просьба не заливать файлы, защищенные авторскими правами, а также файлы нелегального содержания!