[ Сегодня идет свободное скачивание без начисления Download ]


Статистика раздачи
Нет
 
   
 
Top  
 
 
Мужчина с гарантией
>>Год выпуска: 2012
>>Страна: Россия
>>Производство: Enjoy Movies
>>Жанр: Комедия
>>Режиссер: Артем Аксененко
>>В ролях: Александр Олешко, Нонна Гришаева, Петр Федоров, Дмитрий Нагиев, Юлия Гришина, Дмитрий Шаракоис, Михаил Павлик, Сергей Походаев, Ольга Волкова, Андрей Федорцов
>>Перевод: Не требуется
>>Субтитры: Отсутствуют
>>Описание: В одном большом и любимом горожанами торговом центре работает охранником необычный человек. Он помогает всем вокруг: продавцам общепита и модной одежды, уборщикам и барменам в кафетерии. Он знает всё и всех, и все знают и любят его! Он словно домовой в этом огромном здании с миллионом неоновых вывесок и ярких стеклянных витрин. Ведь здесь он не только работает, но и живет полноценной жизнью — бесплатно одевается, питается в ресторанах, спит в мебельном отделе и участвует в ночных гонках на полотерах. «Какой странный персонаж!» — подумаете вы. На самом деле, у нашего героя есть хрустальная и загадочная мечта, на осуществление которой он старательно копит деньги на «зарплатной» банковской карте.


>>Качество: HDRip
>>Продолжительность: 01:24:11
>>Формат: AVI
>>Видео кодек: XviD
>>Аудио кодек: AC3
>>Видео: 702x304 (2.35:1), 23.976 fps, XviD, ~1 868kbps avg, 0.356 bit/pixel
>>Аудио: 48 kHz, AC3 Dolby Digital, 6 (L,C,R,l,r) + LFE ch, ~448 kbps
>>Премьера (мир): 27 сентября 2012
>>Премьера (РФ): 27 сентября 2012, «Каропрокат»

Media Info

D:\Фильмы\Мужчина с гарантией.avi
   General
      Format : AVI
      Format/Info : Audio Video Interleave
      File size : 1.37 GiB
      Duration : 1h 24mn
      Overall bit rate : 2 325 Kbps
      Movie name : Muzhchina.s.garantiej.2012.O.HDRip.
      Genre : Comedy / Family
      Writing application : VirtualDubMod 1.5.10.2 (build 2540/release)
      Original source form/Name : Movie
      Copyright : http://ironclub.tv/
   Video #0
      ID : 0
      Format : MPEG-4 Visual
      Format profile : Advanced [email protected]
      Format settings, BVOP : 2
      Format settings, QPel : No
      Format settings, GMC : No warppoints
      Format settings, Matrix : Custom
      Codec ID : XVID
      Codec ID/Hint : XviD
      Duration : 1h 24mn
      Bit rate : 1 868 Kbps
      Width : 720 pixels
      Height : 304 pixels
      Display aspect ratio : 2.35:1
      Frame rate : 23.976 fps
      Color space : YUV
      Chroma subsampling : 4:2:0
      Bit depth : 8 bits
      Scan type : Progressive
      Compression mode : Lossy
      Bits/(Pixel*Frame) : 0.356
      Stream size : 1.10 GiB (80%)
      Writing library : XviD 1.2.1 (UTC 2008-12-04)
   Audio #1
      ID : 1
      Format : AC-3
      Format/Info : Audio Coding 3
      Mode extension : CM (complete main)
      Codec ID : 2000
      Duration : 1h 24mn
      Bit rate mode : Constant
      Bit rate : 448 Kbps
      Channel(s) : 6 channels
      Channel positions : Front: L C R, Side: L R, LFE
      Sampling rate : 48.0 KHz
      Bit depth : 16 bits
      Compression mode : Lossy
      Stream size : 270 MiB (19%)
      Alignment : Split accross interleaves
      Interleave, duration : 42 ms (1.00 video frame)
      Interleave, preload duration : 500 ms

[Цитировать]



Показать сообщения:    

Текущее время: 05-Дек 15:27

Часовой пояс: UTC + 3


Вы не можете начинать темы
Вы не можете отвечать на сообщения
Вы не можете редактировать свои сообщения
Вы не можете удалять свои сообщения
Вы не можете голосовать в опросах
Вы не можете прикреплять файлы к сообщениям
Вы не можете скачивать файлы

!ВНИМАНИЕ!
Сайт не предоставляет электронные версии произведений, а занимается лишь коллекционированием и каталогизацией ссылок, присылаемых и публикуемых на форуме нашими читателями. Если вы являетесь правообладателем какого-либо представленного материала и не желаете, чтобы ссылка на него находилась в нашем каталоге, свяжитесь с нами, и мы незамедлительно удалим ее. Файлы для обмена на трекере предоставлены пользователями сайта, и администрация не несет ответственности за их содержание. Просьба не заливать файлы, защищенные авторскими правами, а также файлы нелегального содержания!