[ Сегодня идет свободное скачивание без начисления Download ]


Статистика раздачи
Нет
 
   
 
Top  
 
 
Туман / The Fog (2005) HDTVRip-AVC Производство: США, David Foster Productions, Debra Hill Productions, Revolution Studios, Studio Canal
Жанр: Ужасы, Триллер
Режиссер: Руперт Уэйнрайт
Актеры: Том Уэллинг, Мэгги Грэйс, Сэлма Блэр, ДеРэй Дэвис, Кеннет Уэлш, Адриан Хью, Сара Ботсфорд, Коул Хэппелл, Мэри Блэк, Джонатон Янг, Р. Нельсон Браун, Кристиан Бочер, Дуглас Артурс, Ив Камерон, Чарльз Андре, Раде Шербеджия, Мэттью Карри Холмс, Соня Беннет, Меган Хэфферн, Алекс Брухански, Дэн Ши, Рик Пирс, Роберт Харпер, Эрик Брекер, Кэйли Ханивелл, Стефан Арнгрим, Стивен Кри Молисон, Бонни Пэнич, Шерри МакЛин, Ксанта Рэдли, Эбигейл Уинтер-Каллифорд, Татьяна Тернер
Описание:
Когда-то в очень туманную ночь жители небольшого городка Антонио совершили страшное злодеяние - сожгли корабль, перевозивший группу прокаженных. С тех пор прошло почти сто лет, о происшествии давно забыли. Жизнь в портовом городке течет спокойно и безмятежно. Но однажды ночью Антонио внезапно окутывает зловещий густой туман, принесший с собой души призраков, за век не нашедших успокоения и жаждущих мести…

Возраст: 16+ (зрителям, достигшим 16 лет)
Рейтинг MPAA: PG-13 (детям до 13 лет просмотр нежелателен)
Дата мировой премьеры: 14 октября 2005
Дата премьеры в России: 26 января 2006, «Каскад»
Дата выхода DVD/Blu-ray релиза: 27 апреля 2006, «Columbia/Sony»

Продолжительность: 01:33:14
Качество видео: HDTVRip-AVC
Перевод: Дублированный, профессиональный (многоголосый, закадровый) ОРТ
Субтитры: Отсутствуют
Видео: AVC, 1024x428 (2.35:1), 25 fps, 2 950 Kbps (0.269 bit/pixel)
Аудио #1: AC-3, 48.0 KHz, 6 ch, 448 Kbps, CBR (Russian)
Аудио #2: AC-3, 48.0 KHz, 6 ch, 384 Kbps, CBR (Russian)

Mediainfo:

Формат : Matroska
Версия формата : Version 2
Размер файла : 2,46 Гбайт
Продолжительность : 1 ч. 33 м.
Общий поток : 3783 Кбит/сек
Дата кодирования : UTC 2016-03-16 22:47:29
Программа кодирования : mkvmerge v5.3.0 ('I could have danced') built on Feb 9 2012 10:38:07
Библиотека кодирования : libebml v1.2.3 + libmatroska v1.3.0
Attachment : Yes
Видео
Идентификатор : 1
Формат : AVC
Формат/Информация : Advanced Video Codec
Профиль формата : High@L4.1
Параметр CABAC формата : Да
Параметр ReFrames формата : 10 кадров
Идентификатор кодека : V_MPEG4/ISO/AVC
Продолжительность : 1 ч. 33 м.
Битрейт : 2950 Кбит/сек
Ширина : 1024 пикселя
Высота : 428 пикселей
Соотношение сторон : 2,40:1
Режим частоты кадров : Постоянный
Частота кадров : 25,000 кадров/сек
Цветовое пространство : YUV
Субдискретизация насыщенности : 4:2:0
Битовая глубина : 8 бит
Тип развёртки : Прогрессивная
Бит/(Пиксели*Кадры) : 0.269
Размер потока : 1,87 Гбайт (76%)
Библиотека кодирования : x264 core 146 r2538 121396c
Настройки программы : cabac=1 / ref=10 / deblock=1:-3:-3 / analyse=0x3:0x133 / me=umh / subme=10 / psy=1 / psy_rd=1.00:0.15 / mixed_ref=1 / me_range=32 / chroma_me=1 / trellis=2 / 8x8dct=1 / cqm=0 / deadzone=21,11 / fast_pskip=0 / chroma_qp_offset=-3 / threads=12 / lookahead_threads=2 / sliced_threads=0 / nr=0 / decimate=0 / interlaced=0 / bluray_compat=0 / constrained_intra=0 / bframes=8 / b_pyramid=2 / b_adapt=2 / b_bias=0 / direct=3 / weightb=1 / open_gop=0 / weightp=2 / keyint=250 / keyint_min=25 / scenecut=40 / intra_refresh=0 / rc=2pass / mbtree=0 / bitrate=2950 / ratetol=1.0 / qcomp=0.60 / qpmin=0 / qpmax=69 / qpstep=4 / cplxblur=20.0 / qblur=0.5 / ip_ratio=1.40 / pb_ratio=1.30 / aq=2:0.70
Default : Да
Forced : Нет
Аудио #1
Идентификатор : 2
Формат : AC-3
Формат/Информация : Audio Coding 3
Расширение режима : CM (complete main)
Параметр Endianness формата : Big
Идентификатор кодека : A_AC3
Продолжительность : 1 ч. 33 м.
Вид битрейта : Постоянный
Битрейт : 448 Кбит/сек
Каналы : 6 каналов
Расположение каналов : Front: L C R, Side: L R, LFE
Частота : 48,0 КГц
Битовая глубина : 16 бит
Метод сжатия : С потерями
Размер потока : 299 Мбайт (12%)
Заголовок : Дубляж
Язык : Russian
Default : Нет
Forced : Нет
Аудио #2
Идентификатор : 3
Формат : AC-3
Формат/Информация : Audio Coding 3
Расширение режима : CM (complete main)
Параметр Endianness формата : Big
Идентификатор кодека : A_AC3
Продолжительность : 1 ч. 33 м.
Вид битрейта : Постоянный
Битрейт : 384 Кбит/сек
Каналы : 6 каналов
Расположение каналов : Front: L C R, Side: L R, LFE
Частота : 48,0 КГц
Битовая глубина : 16 бит
Метод сжатия : С потерями
Размер потока : 256 Мбайт (10%)
Заголовок : Многоголосый (ОРТ)
Язык : Russian
Default : Нет
Forced : Нет

Скриншоты


[Цитировать]



Показать сообщения:    

Текущее время: 10-Дек 02:13

Часовой пояс: UTC + 3


Вы не можете начинать темы
Вы не можете отвечать на сообщения
Вы не можете редактировать свои сообщения
Вы не можете удалять свои сообщения
Вы не можете голосовать в опросах
Вы не можете прикреплять файлы к сообщениям
Вы не можете скачивать файлы

!ВНИМАНИЕ!
Сайт не предоставляет электронные версии произведений, а занимается лишь коллекционированием и каталогизацией ссылок, присылаемых и публикуемых на форуме нашими читателями. Если вы являетесь правообладателем какого-либо представленного материала и не желаете, чтобы ссылка на него находилась в нашем каталоге, свяжитесь с нами, и мы незамедлительно удалим ее. Файлы для обмена на трекере предоставлены пользователями сайта, и администрация не несет ответственности за их содержание. Просьба не заливать файлы, защищенные авторскими правами, а также файлы нелегального содержания!