[ Сегодня идет свободное скачивание без начисления Download ]


Статистика раздачи
Нет
 
   
 
Top  
 
 
Группа 7 / Grupo 7«Поиски правды приводят в тупик»
Год выпуска: 2012
Страна: Испания
Производство: Audiovisual Aval SGR, Canal+ Espa?a
Жанр: боевик, триллер, драма
Режиссер: Альберто Родригес
В ролях: Антонио де ла Торре, Марио Касас, Хоакин Нуньес, Инма Куэста, Эстефания Де Лос Сантос, Хулиан Вильягран, Альфонсо Санчез, Карлос Олайя, Лусия Герерро
Перевод: Любительский (двухголосый) + Оригинал
Субтитры: Русские
Описание: 1987 год, Севилья. Город готовится ко всемирной выставке Экспо-92.
Седьмая группа - специальный отряд полиции с особо важным заданием: очистить город от проституции и наркотрафика, положив конец разъедающей все силе, которая захватила улицы. Во главе отряда стоят Анхель, молодой офицер, стремящийся стать детективом, и Рафаэль, жестокий и надменный, но очень эффективный опытный коп. Основной метод действия группы 7 в борьбе с преступностью - самим обходить закон с помощью насилия, угроз, полуправды и лжи. Для них все средства хороши. По мере того как они продвигаются в своей миссии вперед, два офицера становятся на разные пути. Анхель оказывается увлеченным своими амбициями, а Рафаэль неожиданно для самого себя привязывается и влюбляется в молодую красавицу Лючию, которую перед этим подбирает на улице.

[kp]590799[/kp] [imdb]tt1924277[/imdb]
Качество: HDRip-AVC
Продолжительность: 01:35:15
Формат: AVI
Видео кодек: XviD
Аудио кодек: AC3
Видео: x.264 / 832*352 / 2,35:1 / 1414 kbps / 24.00 fps / 0.201 bit/pixel
Аудио: AC3 Dolby Digital / 48 KHz / 384 kbps / 3/2 (L,C,R,l,r) + LFE ch | Любительский (двухголосый закадровый)
Аудио #2: AC3 Dolby Digital / 48 KHz / 384 kbps / 3/2 (L,C,R,l,r) + LFE ch | Оригинал (Испанский)
Премьера (мир): 4 апреля 2012
Премьера (РФ): 7 февраля 2013, «Другое кино»

Media Info

General
Unique ID                                : 198873134374939372533335007701040653033 (0x959D928CEA1AEF4AA5C91FFDA84062E9)
Format                                   : Matroska
Format version                           : Version 2
File size                                : 1.45 GiB
Duration                                 : 1h 35mn
Overall bit rate                         : 2 184 Kbps
Movie name                               : Grupo 7 (rip by S.T.A.L.K.E.R.2)
Encoded date                             : UTC 2012-11-04 15:53:36
Writing application                      : mkvmerge v5.6.0 ('Kenya Kane') built on May 27 2012 16:44:04
Writing library                          : libebml v1.2.3 + libmatroska v1.3.0
Video
ID                                       : 1
Format                                   : AVC
Format/Info                              : Advanced Video Codec
Format profile                           : High@L4.1
Format settings, CABAC                   : Yes
Format settings, ReFrames                : 12 frames
Codec ID                                 : V_MPEG4/ISO/AVC
Duration                                 : 1h 35mn
Bit rate                                 : 1 414 Kbps
Width                                    : 832 pixels
Height                                   : 352 pixels
Display aspect ratio                     : 2.35:1
Frame rate mode                          : Constant
Frame rate                               : 24.000 fps
Color space                              : YUV
Chroma subsampling                       : 4:2:0
Bit depth                                : 8 bits
Scan type                                : Progressive
Bits/(Pixel*Frame)                       : 0.201
Stream size                              : 935 MiB (63%)
Writing library                          : x264 core 125 r2200 999b753
Encoding settings                        : cabac=1 / ref=12 / deblock=1:-2:-1 / analyse=0x3:0x113 / me=umh / subme=10 / psy=1 / psy_rd=1.00:0.00 / mixed_ref=1 / me_range=32 / chroma_me=1 / trellis=2 / 8x8dct=1 / cqm=0 / deadzone=21,11 / fast_pskip=0 / chroma_qp_offset=-2 / threads=3 / lookahead_threads=1 / sliced_threads=0 / nr=0 / decimate=0 / interlaced=0 / bluray_compat=0 / constrained_intra=0 / bframes=14 / b_pyramid=2 / b_adapt=2 / b_bias=0 / direct=3 / weightb=1 / open_gop=0 / weightp=2 / keyint=240 / keyint_min=24 / scenecut=40 / intra_refresh=0 / rc_lookahead=40 / rc=2pass / mbtree=1 / bitrate=1414 / ratetol=1.0 / qcomp=0.60 / qpmin=10 / qpmax=51 / qpstep=4 / cplxblur=20.0 / qblur=0.5 / vbv_maxrate=50000 / vbv_bufsize=50000 / nal_hrd=none / ip_ratio=1.40 / aq=1:1.00
Language                                 : English
Default                                  : Yes
Forced                                   : No
Audio #1
ID                                       : 2
Format                                   : AC-3
Format/Info                              : Audio Coding 3
Mode extension                           : CM (complete main)
Format settings, Endianness              : Big
Codec ID                                 : A_AC3
Duration                                 : 1h 35mn
Bit rate mode                            : Constant
Bit rate                                 : 384 Kbps
Channel(s)                               : 6 channels
Channel positions                        : Front: L C R, Side: L R, LFE
Sampling rate                            : 48.0 KHz
Bit depth                                : 16 bits
Compression mode                         : Lossy
Stream size                              : 262 MiB (18%)
Title                                    : DVO - ViruseProject
Language                                 : Russian
Default                                  : Yes
Forced                                   : Yes
Audio #2
ID                                       : 3
Format                                   : AC-3
Format/Info                              : Audio Coding 3
Mode extension                           : CM (complete main)
Format settings, Endianness              : Big
Codec ID                                 : A_AC3
Duration                                 : 1h 35mn
Bit rate mode                            : Constant
Bit rate                                 : 384 Kbps
Channel(s)                               : 6 channels
Channel positions                        : Front: L C R, Side: L R, LFE
Sampling rate                            : 48.0 KHz
Bit depth                                : 16 bits
Compression mode                         : Lossy
Stream size                              : 262 MiB (18%)
Language                                 : Spanish
Default                                  : No
Forced                                   : No
Text #1
ID                                       : 4
Format                                   : UTF-8
Codec ID                                 : S_TEXT/UTF8
Codec ID/Info                            : UTF-8 Plain Text
Title                                    : sub Антон Кедров (antoniolagrande)
Language                                 : Russian
Default                                  : No
Forced                                   : No
Text #2
ID                                       : 5
Format                                   : UTF-8
Codec ID                                 : S_TEXT/UTF8
Codec ID/Info                            : UTF-8 Plain Text
Language                                 : English
Default                                  : No
Forced                                   : No
Menu
00:00:00.000                             : en:00:00:00.000
00:11:50.458                             : en:00:11:50.458
00:23:53.042                             : en:00:23:53.042
00:34:38.750                             : en:00:34:38.750
00:48:38.667                             : en:00:48:38.667
01:00:24.583                             : en:01:00:24.583
01:12:23.375                             : en:01:12:23.375
01:24:12.625                             : en:01:24:12.625

Скриншоты



[Цитировать]

Топик был перенесен из форума Новинки кинопроката в форум Триллер
Henkok



Показать сообщения:    

Текущее время: 09-Дек 20:28

Часовой пояс: UTC + 3


Вы не можете начинать темы
Вы не можете отвечать на сообщения
Вы не можете редактировать свои сообщения
Вы не можете удалять свои сообщения
Вы не можете голосовать в опросах
Вы не можете прикреплять файлы к сообщениям
Вы не можете скачивать файлы

!ВНИМАНИЕ!
Сайт не предоставляет электронные версии произведений, а занимается лишь коллекционированием и каталогизацией ссылок, присылаемых и публикуемых на форуме нашими читателями. Если вы являетесь правообладателем какого-либо представленного материала и не желаете, чтобы ссылка на него находилась в нашем каталоге, свяжитесь с нами, и мы незамедлительно удалим ее. Файлы для обмена на трекере предоставлены пользователями сайта, и администрация не несет ответственности за их содержание. Просьба не заливать файлы, защищенные авторскими правами, а также файлы нелегального содержания!