[ Сегодня идет свободное скачивание без начисления Download ]


Статистика раздачи
Нет
 
   
 
Top  
 
 
Девятые врата / The Ninth Gate«Как далеко ты готов зайти?»
Год выпуска: 1999
Страна: США, Франция, Испания
Производство: Artisan Entertainment, Bac Films, Canal+ Espa?a, Canal+ [fr]
Жанр: ужасы, триллер, детектив
Режиссер: Роман Полански
В ролях: Джонни Депп, Фрэнк Ланджелла, Лена Улин, Эмманюэль Сенье, Барбара Джеффорд, Джек Тейлор, Хосе Лопес Родеро, Тони Амони, Джеймс Руссо, Уилли Холт
Перевод: Профессиональный (полное дублирование)
Субтитры: Отсутствуют
Описание: Дин Корсо, один из лучших специалистов по поиску, оценке и скупке раритетных изданий, принимает от владельца крупнейшей в мире библиотеки оккультных книг необычный, но крайне выгодный заказ: определить подлинность венца собрания, фолианта XVII века под названием «Девять врат в царство призраков», с помощью которого, по преданию, можно вызвать самого Люцифера. Ему предстоит полное опасностей и тайн путешествие по Европе.
Но только тогда, когда на пути к разгадке тайны «Девятых врат» начинают попадаться трупы тех, с кем Дин Корсо встречался совсем недавно, ему открывается зловещая правда. Он понимает, что в этой дьявольской игре на кон поставлена не только жизнь его, но и душа…

[kp]11637[/kp] [imdb]tt0142688[/imdb]
Качество: BDRip-AVC
Продолжительность: 02:13:15
Формат: MKV
Видео кодек: AVC
Аудио кодек: AC3
Видео: x.264, 1024x436 (2.35:1), 23.976 fps, 1822 Кbps, 0.170 bit/pixel
Аудио: 48 kHz, AC3 Dolby Digital, 3/2 (L,C,R,l,r) + LFE ch, ~384.00 kbps avg

Media Info

General
Unique ID                                : 170617778027654655447343403336456002180 (0x805BC9ED25A7E246BE0AC7980520DA84)
Format                                   : Matroska
Format version                           : Version 2
File size                                : 2.10 GiB
Duration                                 : 2h 13mn
Overall bit rate                         : 2 251 Kbps
Encoded date                             : UTC 2012-03-11 16:04:57
Writing application                      : mkvmerge v3.3.0 ('Language') gebaut am Mar 24 2010 14:59:24
Writing library                          : libebml v0.8.0 + libmatroska v0.9.0
Video
ID                                       : 1
Format                                   : AVC
Format/Info                              : Advanced Video Codec
Format profile                           : High@L4.1
Format settings, CABAC                   : Yes
Format settings, ReFrames                : 5 frames
Codec ID                                 : V_MPEG4/ISO/AVC
Duration                                 : 2h 13mn
Bit rate                                 : 1 870 Kbps
Width                                    : 1 024 pixels
Height                                   : 436 pixels
Display aspect ratio                     : 2.35:1
Frame rate mode                          : Constant
Frame rate                               : 23.976 fps
Color space                              : YUV
Chroma subsampling                       : 4:2:0
Bit depth                                : 8 bits
Scan type                                : Progressive
Bits/(Pixel*Frame)                       : 0.175
Stream size                              : 1.70 GiB (81%)
Title                                    : The Ninth Gate
Writing library                          : x264 core 120 r2164 da19765
Encoding settings                        : cabac=1 / ref=5 / deblock=1:-1:-1 / analyse=0x3:0x113 / me=umh / subme=10 / psy=1 / psy_rd=1.00:0.15 / mixed_ref=1 / me_range=24 / chroma_me=1 / trellis=2 / 8x8dct=1 / cqm=0 / deadzone=21,11 / fast_pskip=1 / chroma_qp_offset=-3 / threads=12 / sliced_threads=0 / nr=0 / decimate=1 / interlaced=0 / bluray_compat=0 / constrained_intra=0 / bframes=3 / b_pyramid=2 / b_adapt=1 / b_bias=0 / direct=2 / weightb=1 / open_gop=0 / weightp=2 / keyint=230 / keyint_min=23 / scenecut=40 / intra_refresh=0 / rc_lookahead=58 / rc=2pass / mbtree=1 / bitrate=1870 / ratetol=1.0 / qcomp=0.60 / qpmin=0 / qpmax=69 / qpstep=4 / cplxblur=20.0 / qblur=0.5 / vbv_maxrate=5000 / vbv_bufsize=5000 / nal_hrd=none / ip_ratio=1.40 / aq=1:1.00 / zones=186000,191512,b=0.27
Language                                 : English
Default                                  : No
Forced                                   : No
Color primaries                          : BT.709
Transfer characteristics                 : BT.709
Matrix coefficients                      : BT.709
Audio
ID                                       : 2
Format                                   : AC-3
Format/Info                              : Audio Coding 3
Mode extension                           : CM (complete main)
Format settings, Endianness              : Big
Codec ID                                 : A_AC3
Duration                                 : 2h 13mn
Bit rate mode                            : Constant
Bit rate                                 : 384 Kbps
Channel(s)                               : 6 channels
Channel positions                        : Front: L C R, Side: L R, LFE
Sampling rate                            : 48.0 KHz
Bit depth                                : 16 bits
Compression mode                         : Lossy
Stream size                              : 366 MiB (17%)
Title                                    : Дубляж
Language                                 : Russian
Default                                  : Yes
Forced                                   : No
Menu
00:00:00.000                             : en:Chapter 01
00:09:44.208                             : en:Chapter 02
00:18:58.303                             : en:Chapter 03
00:24:51.865                             : en:Chapter 04
00:30:55.061                             : en:Chapter 05
00:37:49.308                             : en:Chapter 06
00:44:56.694                             : en:Chapter 07
00:53:43.803                             : en:Chapter 08
01:01:52.500                             : en:Chapter 09
01:10:28.224                             : en:Chapter 10
01:21:02.482                             : en:Chapter 11
01:28:05.280                             : en:Chapter 12
01:40:28.605                             : en:Chapter 13
01:47:49.171                             : en:Chapter 14
01:53:58.873                             : en:Chapter 15
02:03:13.386                             : en:Chapter 16

Скриншоты

[Цитировать]

Фильм Супер

[Цитировать]

пока сам не смотрел (:

Комментарий от DarkHeart


Потом качну, только раздай :D

[Цитировать]



Показать сообщения:    

Текущее время: 11-Дек 01:24

Часовой пояс: UTC + 3


Вы не можете начинать темы
Вы не можете отвечать на сообщения
Вы не можете редактировать свои сообщения
Вы не можете удалять свои сообщения
Вы не можете голосовать в опросах
Вы не можете прикреплять файлы к сообщениям
Вы не можете скачивать файлы

!ВНИМАНИЕ!
Сайт не предоставляет электронные версии произведений, а занимается лишь коллекционированием и каталогизацией ссылок, присылаемых и публикуемых на форуме нашими читателями. Если вы являетесь правообладателем какого-либо представленного материала и не желаете, чтобы ссылка на него находилась в нашем каталоге, свяжитесь с нами, и мы незамедлительно удалим ее. Файлы для обмена на трекере предоставлены пользователями сайта, и администрация не несет ответственности за их содержание. Просьба не заливать файлы, защищенные авторскими правами, а также файлы нелегального содержания!