[ Сегодня идет свободное скачивание без начисления Download ]


Статистика раздачи
Скачал: [ 1 ]
 
   
 
Top  
 
 
Борис Поташник и Ольга Александрова | Дизайн поздравительных открыток [H.264/720p] - Автор (режиссер): Борис Поташник и Ольга Александрова
Жанр: Обучающеевидео
Описание:
Чему вы научитесь, пройдя видеокурс
«Дизайн поздравительных открыток»?
Вы научитесь придумывать и создавать привлекательные профессиональные поздравительные открытки к любым праздникам.
Вы научитесь грамотно подбирать и применять шрифты в дизайне открыток.
Вы научитесь эффективно использовать цветовые гармонии при оформлении открыток.
Вы узнаете из каких компонентов создаются открытки, где их находить и как использовать в работе.
Вы научитесь приемам работы с декоративными элементами в дизайне открыток.
Вы научитесь быстро и уверенно компоновать открытки в программе Adobe Photoshop.
Вы научитесь подготавливать созданные вами открытки к офсетной печати.
Продолжительность: Общая продолжительность видео около 8 часов
Качество видео: PCRec
Видео: AVC/H.264, 1280х720, ~1200 Kbpc
Аудио: AAC, 2 ch, max 280Kbps, VBR

Бонусы:

1. Комплект клипарта и набор декоративных шрифтов для дизайна открыток.
2. Комплект рабочих бизнес- планов по заработку на создании поздравительных открыток.

Mediainfo:

бщее
Полное имя                               : H:\Курс СОЗДАНИЕ ПОЗДРАВИТЕЛЬНЫХ ОТКРЫТОК\greeting_cards_design\HTML menu\video\lesson1.mp4
Формат                                   : MPEG-4
Профиль формата                          : Base Media / Version 2
Идентификатор кодека                     : mp42 (mp42/isom)
Размер файла                             : 224 Мбайт
Продолжительность                        : 21 м.
Режим общего битрейта                    : Переменный
Общий поток                              : 1459 Кбит/сек
Дата кодирования                         : UTC 2015-12-20 18:40:33
Дата пометки                             : UTC 2015-12-20 18:46:23
Видео
Идентификатор                            : 1
Формат                                   : AVC
Формат/Информация                        : Advanced Video Codec
Профиль формата                          : Main@L3.1
Параметр CABAC формата                   : Да
Параметр ReFrames формата                : 5 кадров
Параметр GOP формата                     : M=4, N=25
Идентификатор кодека                     : avc1
Идентификатор кодека/Информация          : Advanced Video Coding
Продолжительность                        : 21 м.
Битрейт                                  : 1204 Кбит/сек
Ширина                                   : 1280 пикселей
Высота                                   : 720 пикселей
Соотношение сторон                       : 16:9
Режим частоты кадров                     : Постоянный
Частота кадров                           : 30,000 кадров/сек
Цветовое пространство                    : YUV
Субдискретизация насыщенности            : 4:2:0
Битовая глубина                          : 8 бит
Тип развёртки                            : Прогрессивная
Бит/(Пиксели*Кадры)                      : 0.044
Размер потока                            : 185 Мбайт (83%)
Дата кодирования                         : UTC 2015-12-20 18:40:33
Дата пометки                             : UTC 2015-12-20 18:46:23
Основные цвета                           : BT.709
Характеристики трансфера                 : BT.709
Коэффициенты матрицы                     : BT.709
Аудио
Идентификатор                            : 2
Формат                                   : AAC
Формат/Информация                        : Advanced Audio Codec
Профиль формата                          : LC
Идентификатор кодека                     : 40
Продолжительность                        : 21 м.
Вид битрейта                             : Переменный
Битрейт                                  : 250 Кбит/сек
Максимальный битрейт                     : 280 Кбит/сек
Каналы                                   : 2 канала
Расположение каналов                     : Front: L R
Частота                                  : 44,1 КГц
Частота кадров                           : 43,066 кадра/сек (1024 spf)
Метод сжатия                             : С потерями
Размер потока                            : 38,5 Мбайт (17%)
Дата кодирования                         : UTC 2015-12-20 18:40:33
Дата пометки                             : UTC 2015-12-20 18:41:07

Дополнительная информация:

Программа видеокурса:
Урок 1. Введение в тему дизайна открыток
Урок 2. Работа с цветом в дизайне открыток
Урок 3. Создание официальных открыток
Урок 4. Работа со шрифтами в дизайне открыток
Урок 5. Создание открыток «С Днем свадьбы!»
Урок 6. Создание открыток «С Днем рождения!»
Урок 7. Создание открыток для детей
Урок 8. Создание открыток «С юбилеем!»
Урок 9. Создание открыток для мужчин
Урок 10. Создание новогодних открыток
Урок 11. Создание открыток «Валентинок»
Урок 12. Создание открыток к 23 февраля
Урок 13. Создание открыток к 8 Марта
Урок 14. Создание открыток ко Дню Победы
Урок 15. Создание открыток школьной тематики
Урок 16. Создание корпоративных открыток
Урок 17. Создание приглашений
Урок 18. Подготовка открыток к печати
Общая продолжительность всех видеоуроков – около 8 часов.
Скриншоты:

[Цитировать]



Показать сообщения:    

Текущее время: 11-Дек 11:03

Часовой пояс: UTC + 3


Вы не можете начинать темы
Вы не можете отвечать на сообщения
Вы не можете редактировать свои сообщения
Вы не можете удалять свои сообщения
Вы не можете голосовать в опросах
Вы не можете прикреплять файлы к сообщениям
Вы не можете скачивать файлы

!ВНИМАНИЕ!
Сайт не предоставляет электронные версии произведений, а занимается лишь коллекционированием и каталогизацией ссылок, присылаемых и публикуемых на форуме нашими читателями. Если вы являетесь правообладателем какого-либо представленного материала и не желаете, чтобы ссылка на него находилась в нашем каталоге, свяжитесь с нами, и мы незамедлительно удалим ее. Файлы для обмена на трекере предоставлены пользователями сайта, и администрация не несет ответственности за их содержание. Просьба не заливать файлы, защищенные авторскими правами, а также файлы нелегального содержания!