[ Сегодня идет свободное скачивание без начисления Download ]


Статистика раздачи
Нет
 
   
 
Top  
 
 
Кража (1970) SATRip-AVC Информация о фильме
Название: Кража
Год выхода: 1970
Жанр: Криминал, детектив
Режиссер: Александр Гордон
В ролях: Олег Борисов, Эдуард Марцевич, Ирен Азер, Николай Бурляев, Наталья Величко, Зинаида Воркуль, Борис Голдаев, Юрий Горобец, Михаил Еремеев, Тамара Логинова, Алексей Нагорный, Татьяна Надеждина, Владимир Наумов, Наталья Воробьёва-Хржич, Владлен Паулус, Андрей Попов
О фильме:
Из музея, где реставратором работает Алексей Гуров похищен старинный клинок, украшенный алмазами. После этого из квартиры Гурова украдена старинная икона. Возглавить расследование краж поручено полковнику милиции Георгию Арефьеву. Все знают, что Гуров одержим коллекционированием раритетов, поэтому подозрение падает на него. Полковник Арефьев, сомневаясь в правильности выдвинутых против Гурова обвинений и понимая, что коллекционера ловко подставили, начинает вести тонкую игру против преступников, цель которой — обезвредить главаря банды, организовавшего хитроумную кражу.
Страна: СССР, Молдова Фильм
Продолжительность: 02:06:24
Перевод: не требуется
Файл
Кодек: x264
Качество: SATRip-AVC
Видео: MPEG-4, 2275 Кбит/с, [email protected]/* */
Звук: AC3, 2 ch, 256 Кбит/с

Скриншоты

Медиа-Инфо

raw [info]: 718x572p 16:15 @ 25/1 fps (cfr)
x264 [info]: using SAR=16/15
x264 [info]: using cpu capabilities: MMX2 SSE2Fast SSSE3 SSE4.2 AVX
x264 [info]: profile High, level 4.1
x264 [info]: frame I:481 Avg QP:15.22 size: 68568
x264 [info]: frame P:21346 Avg QP:18.24 size: 26831
x264 [info]: frame B:73129 Avg QP:20.58 size: 6488
================================================================================================================
Общее
Уникальный идентификатор : 200823728115013214731508798494403925844 (0x97153E3F35EF5117B7AF1B296A7F1754)
Полное имя : R:МОИ РИПЫКража_1970-SATRip-AVCКража-1.mkv
Формат : Matroska
Версия формата : Version 2
Размер файла : 1,12 Гбайт
Продолжительность : 1 ч. 3 м.
Общий поток : 2533 Кбит/сек
Дата кодирования : UTC 2016-03-16 19:11:44
Программа кодирования : mkvmerge v5.8.0 ('No Sleep / Pillow') built on Sep 2 2012 15:37:04
Библиотека кодирования : libebml v1.2.3 + libmatroska v1.3.0
Видео
Идентификатор : 1
Формат : AVC
Формат/Информация : Advanced Video Codec
Профиль формата : [email protected]
Параметр CABAC формата : Да
Параметр ReFrames формата : 15 кадров
Идентификатор кодека : V_MPEG4/ISO/AVC
Продолжительность : 1 ч. 3 м.
Битрейт : 2275 Кбит/сек
Ширина : 718 пикселей
Высота : 572 пикселя
Соотношение сторон : 4:3
Соотношение сторон в оригинале : 4:3
Режим частоты кадров : Постоянный
Частота кадров : 25,000 кадров/сек
Цветовое пространство : YUV
Субдискретизация насыщенности : 4:2:0
Битовая глубина : 8 бит
Тип развёртки : Прогрессивная
Бит/(Пиксели*Кадры) : 0.222
Размер потока : 1008 Мбайт (88%)
Библиотека кодирования : x264 core 148 r2638 7599210
Настройки программы : cabac=1 / ref=15 / deblock=1:-2:-2 / analyse=0x3:0x133 / me=umh / subme=10 / psy=1 / psy_rd=1.05:0.15 / mixed_ref=1 / me_range=32 / chroma_me=1 / trellis=2 / 8x8dct=1 / cqm=0 / deadzone=21,11 / fast_pskip=0 / chroma_qp_offset=-3 / threads=12 / lookahead_threads=2 / sliced_threads=0 / nr=0 / decimate=0 / interlaced=0 / bluray_compat=0 / constrained_intra=0 / bframes=9 / b_pyramid=2 / b_adapt=2 / b_bias=0 / direct=3 / weightb=1 / open_gop=0 / weightp=2 / keyint=250 / keyint_min=25 / scenecut=40 / intra_refresh=0 / rc_lookahead=40 / rc=2pass / mbtree=1 / bitrate=2275 / ratetol=1.0 / qcomp=0.70 / qpmin=0 / qpmax=39 / qpstep=4 / cplxblur=20.0 / qblur=0.5 / ip_ratio=1.40 / aq=1:1.00
Язык : English
Default : Да
Forced : Нет
Основные цвета : BT.601 PAL
Характеристики трансфера : BT.470 System B, BT.470 System G
Коэффициенты матрицы : BT.601
Аудио
Идентификатор : 2
Формат : AC-3
Формат/Информация : Audio Coding 3
Расширение режима : CM (complete main)
Параметр Endianness формата : Big
Идентификатор кодека : A_AC3
Продолжительность : 1 ч. 3 м.
Вид битрейта : Постоянный
Битрейт : 256 Кбит/сек
Каналы : 2 канала
Расположение каналов : Front: L R
Частота : 48,0 КГц
Битовая глубина : 16 бит
Метод сжатия : С потерями
Задержка видео : 90 мс.
Размер потока : 116 Мбайт (10%)
Язык : Russian
Default : Да
Forced : Нет

[Цитировать]



Показать сообщения:    

Текущее время: 06-Дек 03:55

Часовой пояс: UTC + 3


Вы не можете начинать темы
Вы не можете отвечать на сообщения
Вы не можете редактировать свои сообщения
Вы не можете удалять свои сообщения
Вы не можете голосовать в опросах
Вы не можете прикреплять файлы к сообщениям
Вы не можете скачивать файлы

!ВНИМАНИЕ!
Сайт не предоставляет электронные версии произведений, а занимается лишь коллекционированием и каталогизацией ссылок, присылаемых и публикуемых на форуме нашими читателями. Если вы являетесь правообладателем какого-либо представленного материала и не желаете, чтобы ссылка на него находилась в нашем каталоге, свяжитесь с нами, и мы незамедлительно удалим ее. Файлы для обмена на трекере предоставлены пользователями сайта, и администрация не несет ответственности за их содержание. Просьба не заливать файлы, защищенные авторскими правами, а также файлы нелегального содержания!