[ Сегодня идет свободное скачивание без начисления Download ]


Статистика раздачи
Скачал: [ 1 ]
 
   
 
Top  
 
 
Двойной капкан (1985) DVDRip-AVC Информация о фильме
Название: Двойной капкан
Год выхода: 1985
Жанр: Криминал, детектив
Режиссер: Алоиз Бренч
В ролях: Альгис Матулёнис, Лилита Озолиня, Юрис Леяскалнс, Янис Зариньш, Эдите Сагатаускайте, Юрис Плявиньш, Петерис Гаудиньш, Юрис Лиснерс, Эдуард Павулс, Андис Квепс, Улдис Лиелдидж, Вилнис Бекерис, Янис Екабсонс, Улдис Думпис, Гирт Яковлев, Зигурдс Нейманис, Арийс Гейкинс, Хелга Данцберга, Миервалдис Озолиньш, Константин Бердиков, Таливалдис Аболиньш, Мартыньш Вердыньш, Бронислав Лизбовскис, Айгарс Цеплитис, Илга Званова, Инес Петерсоне-Кирсоне, Селга Бедрите
О фильме:
В Риге появляется группа преступников, которая занимается спекуляцией видеокассет и порнографических журналов. Также бандиты перепродают за границу шедевры искусства. Во главе этой преступной группировки стоит администратор одного из ночных баров. Милиция Риги уже давно следит за этим человеком, однако найти доказательства его преступной деятельности будет нелегко.
Страна: СССР, Рижская киностудия
Продолжительность: 02:11:19
Перевод: не требуется
Файл
Кодек: x264
Качество: DVDRip-AVC
Видео: MPEG-4, 2450 Кбит/с, [email protected]/* */
Звук: AC3, 2 ch, 192 Кбит/с

Скриншоты

Медиа-Инфо

raw [info]: 704x570p 16:15 @ 25/1 fps (cfr)
x264 [info]: using SAR=16/15
x264 [info]: using cpu capabilities: MMX2 SSE2Fast SSSE3 SSE4.2 AVX
x264 [info]: profile High, level 4.1
x264 [info]: frame I:1003 Avg QP:16.26 size: 66390
x264 [info]: frame P:59500 Avg QP:19.29 size: 26205
x264 [info]: frame B:136473 Avg QP:21.69 size: 5768
===============================================================================================================
Общее
Уникальный идентификатор : 196985415438440343932044873886812989008 (0x943202D235ADB7E2AF86C7D40B9DE650)
Полное имя : D:Двойной капкан_1985-DVDRip-AVC.mkv
Формат : Matroska
Версия формата : Version 2
Размер файла : 2,42 Гбайт
Продолжительность : 2 ч. 11 м.
Общий поток : 2644 Кбит/сек
Дата кодирования : UTC 2016-03-18 12:33:54
Программа кодирования : mkvmerge v5.8.0 ('No Sleep / Pillow') built on Sep 2 2012 15:37:04
Библиотека кодирования : libebml v1.2.3 + libmatroska v1.3.0
Видео
Идентификатор : 1
Формат : AVC
Формат/Информация : Advanced Video Codec
Профиль формата : High@L4.1
Параметр CABAC формата : Да
Параметр ReFrames формата : 15 кадров
Идентификатор кодека : V_MPEG4/ISO/AVC
Продолжительность : 2 ч. 11 м.
Битрейт : 2450 Кбит/сек
Ширина : 704 пикселя
Высота : 570 пикселей
Соотношение сторон : 4:3
Соотношение сторон в оригинале : 4:3
Режим частоты кадров : Постоянный
Частота кадров : 25,000 кадров/сек
Цветовое пространство : YUV
Субдискретизация насыщенности : 4:2:0
Битовая глубина : 8 бит
Тип развёртки : Прогрессивная
Бит/(Пиксели*Кадры) : 0.244
Размер потока : 2,20 Гбайт (91%)
Библиотека кодирования : x264 core 148 r2638 7599210
Настройки программы : cabac=1 / ref=15 / deblock=1:2:-2 / analyse=0x3:0x133 / me=umh / subme=10 / psy=1 / psy_rd=1.05:0.10 / mixed_ref=1 / me_range=32 / chroma_me=1 / trellis=2 / 8x8dct=1 / cqm=0 / deadzone=21,11 / fast_pskip=0 / chroma_qp_offset=-3 / threads=12 / lookahead_threads=2 / sliced_threads=0 / nr=0 / decimate=0 / interlaced=0 / bluray_compat=0 / constrained_intra=0 / bframes=8 / b_pyramid=2 / b_adapt=2 / b_bias=0 / direct=3 / weightb=1 / open_gop=0 / weightp=2 / keyint=250 / keyint_min=25 / scenecut=40 / intra_refresh=0 / rc=2pass / mbtree=0 / bitrate=2450 / ratetol=1.0 / qcomp=0.63 / qpmin=0 / qpmax=39 / qpstep=4 / cplxblur=20.0 / qblur=0.5 / ip_ratio=1.30 / pb_ratio=1.30 / aq=1:0.90
Язык : English
Default : Да
Forced : Нет
Основные цвета : BT.601 PAL
Характеристики трансфера : BT.470 System B, BT.470 System G
Коэффициенты матрицы : BT.601
Аудио
Идентификатор : 2
Формат : AC-3
Формат/Информация : Audio Coding 3
Расширение режима : CM (complete main)
Параметр Endianness формата : Big
Идентификатор кодека : A_AC3
Продолжительность : 2 ч. 11 м.
Вид битрейта : Постоянный
Битрейт : 192 Кбит/сек
Каналы : 2 канала
Расположение каналов : Front: L R
Частота : 48,0 КГц
Битовая глубина : 16 бит
Метод сжатия : С потерями
Размер потока : 180 Мбайт (7%)
Язык : Russian
Default : Да
Forced : Нет

[Цитировать]



Показать сообщения:    

Текущее время: 09-Дек 20:27

Часовой пояс: UTC + 3


Вы не можете начинать темы
Вы не можете отвечать на сообщения
Вы не можете редактировать свои сообщения
Вы не можете удалять свои сообщения
Вы не можете голосовать в опросах
Вы не можете прикреплять файлы к сообщениям
Вы не можете скачивать файлы

!ВНИМАНИЕ!
Сайт не предоставляет электронные версии произведений, а занимается лишь коллекционированием и каталогизацией ссылок, присылаемых и публикуемых на форуме нашими читателями. Если вы являетесь правообладателем какого-либо представленного материала и не желаете, чтобы ссылка на него находилась в нашем каталоге, свяжитесь с нами, и мы незамедлительно удалим ее. Файлы для обмена на трекере предоставлены пользователями сайта, и администрация не несет ответственности за их содержание. Просьба не заливать файлы, защищенные авторскими правами, а также файлы нелегального содержания!