[ Сегодня идет свободное скачивание без начисления Download ]


Статистика раздачи
Нет
 
   
 
 
 
Принцесса солнца / La Reine soleil«Le Destin de L'Egypte est entre leurs mains.»
Год выпуска: 2007
Страна: Бельгия, Франция, Венгрия
Производство: Belokan Productions, Rezo Productions
Дистрибьютор: Парадиз

Жанр: Мультфильм-Режиссер: Филипп Леклерк / Philippe Leclerc
В ролях: Филипп Аллард, Кэтрин Конет, Александра Сорриа, Джин-Марк Делаусс, Патрик Донней, Жерар Дюке, Дэниэл Дюри, Натали Хомс, Арно Леонар, Мэтью Моро-Перевод:
»» Профессиональный (полное дублирование)

»» Профессиональный (полное дублирование)
»» Французский
Субтитры: Русские-Описание: Ничего не препятствует молодой принцессе управлять народом Египта, но она решает найти свою мать Нифертити при помощи молодого незнакомца Тута. Она еще не знает, через что она должна пройти. Преследуемые врагами, которых послал Фараон, двое подростков противостоят тысячи опасностям на своем пути!
[kp]246292[/kp] [imdb]tt0459959[/imdb]-Бонусы
Анимированное меню
Бонусов нет
-Качество: DVD5
Продолжительность: 01:13:46-Формат: DVD Video
Видео кодек: MPEG2
Аудио кодек: AC3 + DTS-Видео:
»» PAL 16:9 (720x576) VBR ~ 7333.89 kbps avg (согласно отчету DVD Info)
»» 720x576 (16:9), 25 fps, MPEG2 ~7333.89 kbps avg, 0.504 bit/pixe (согласно отчету Media Info)

Аудио:
»» AC3, 3/2 (L,C,R,SL,SR)+LFE ch, 448 kbps, Delay 280 mSec
»» DTS, 3/2 (L,C,R,SL,SR), 768 kbps, Delay 280 mSec
»» AC3, 3/2 (L,C,R,SL,SR)+LFE ch, 448 kbps, Delay 280 mSec

Media Info

Общее
Полное имя                               : D:\Принцесса солнца DVD5\VIDEO_TS\VTS_01_1.VOB
Формат                                   : MPEG-PS
Размер файла                             : 1024 Мбайт
Продолжительность                        : 20 м.
Режим общего битрейта                    : Переменный
Общий поток                              : 7017 Кбит/сек
Видео
Идентификатор                            : 224 (0xE0)
Формат                                   : MPEG Video
Версия формата                           : Version 2
Профиль формата                          : [email protected]
Параметр BVOP формата                    : Да
Параметр матрицы формата                 : Выборочная
Параметр GOP формата                     : Variable
Продолжительность                        : 20 м.
Вид битрейта                             : Переменный
Битрейт                                  : 5227 Кбит/сек
Максимальный битрейт                     : 7500 Кбит/сек
Ширина                                   : 720 пикселей
Высота                                   : 576 пикселей
Соотношение сторон                       : 16:9
Частота кадров                           : 25,000 кадров/сек
Стандарт вещания                         : PAL
Цветовое пространство                    : YUV
Субдискретизация насыщенности            : 4:2:0
Битовая глубина                          : 8 бит
Тип развёртки                            : Прогрессивная
Метод сжатия                             : С потерями
Бит/(Пиксели*Кадры)                      : 0.504
Размер потока                            : 763 Мбайт (74%)
Основные цвета                           : BT.601 NTSC
Характеристики трансфера                 : BT.601
Коэффициенты матрицы                     : BT.601
Аудио #1
Идентификатор                            : 189 (0xBD)-128 (0x80)
Формат                                   : AC-3
Формат/Информация                        : Audio Coding 3
Расширение режима                        : CM (complete main)
Параметр Endianness формата              : Big
Режим смешивания                         : DVD-Video
Продолжительность                        : 20 м.
Вид битрейта                             : Постоянный
Битрейт                                  : 448 Кбит/сек
Каналы                                   : 6 каналов
Расположение каналов                     : Front: L C R, Side: L R, LFE
Частота                                  : 48,0 КГц
Битовая глубина                          : 16 бит
Метод сжатия                             : С потерями
Задержка видео                           : 280 мс.
Размер потока                            : 65,3 Мбайт (6%)
Аудио #2
Идентификатор                            : 189 (0xBD)-130 (0x82)
Формат                                   : AC-3
Формат/Информация                        : Audio Coding 3
Расширение режима                        : CM (complete main)
Параметр Endianness формата              : Big
Режим смешивания                         : DVD-Video
Продолжительность                        : 20 м.
Вид битрейта                             : Постоянный
Битрейт                                  : 448 Кбит/сек
Каналы                                   : 6 каналов
Расположение каналов                     : Front: L C R, Side: L R, LFE
Частота                                  : 48,0 КГц
Битовая глубина                          : 16 бит
Метод сжатия                             : С потерями
Задержка видео                           : 280 мс.
Размер потока                            : 65,3 Мбайт (6%)
Аудио #3
Идентификатор                            : 189 (0xBD)-137 (0x89)
Формат                                   : DTS
Формат/Информация                        : Digital Theater Systems
Режим                                    : 16
Параметр Endianness формата              : Big
Режим смешивания                         : DVD-Video
Продолжительность                        : 20 м.
Вид битрейта                             : Постоянный
Битрейт                                  : 755 Кбит/сек
Каналы                                   : 6 каналов
Расположение каналов                     : Front: L C R, Side: L R, LFE
Частота                                  : 48,0 КГц
Битовая глубина                          : 24 бит
Метод сжатия                             : С потерями
Задержка видео                           : 280 мс.
Размер потока                            : 110 Мбайт (11%)
Текст
Идентификатор                            : 189 (0xBD)-32 (0x20)
Формат                                   : RLE
Формат/Информация                        : Run-length encoding
Режим смешивания                         : DVD-Video
Продолжительность                        : 20 м.
Задержка видео                           : 1 с. 360 мс.

DVDInfo

Title: Принцесса солнца DVD5
Size: 4.16 Gb ( 4 357 596,00 KBytes ) - DVD-5
Enabled regions: 1, 2, 3, 4, 5, 6, 7, 8
VTS_01 :
  Play Length: 01:13:46
  Video: PAL 16:9 (720x576) VBR, Auto Letterboxed
  Audio:
      Russian, AC3, 3/2 (L,C,R,SL,SR)+LFE ch, 448 kbps, Delay 280 mSec
      Russian, DTS, 3/2 (L,C,R,SL,SR), 768 kbps, Delay 280 mSec
      Francais, AC3, 3/2 (L,C,R,SL,SR)+LFE ch, 448 kbps, Delay 280 mSec
  Subtitles:
      Russian
* Menus Information *
VIDEO_TS Menu
Video:
      PAL 4:3 (720x576) VBR
Audio:
      Not specified (Dolby AC3, 2 ch)
Russian Language Unit :
      Title Menu
VTS_01 Menu
Video:
      PAL 16:9 (720x576) VBR
      Auto Letterboxed
Audio:
      Not specified (Dolby AC3, 2 ch)
Russian Language Unit :
      Root Menu
      Subpicture Menu
      Audio Menu
      Chapter (PTT) Menu

Обложка и коврик

Присутствует в раздаче, папка "Cover"

[Цитировать]



Показать сообщения:    

Текущее время: 05-Дек 13:30

Часовой пояс: UTC + 3


Вы не можете начинать темы
Вы не можете отвечать на сообщения
Вы не можете редактировать свои сообщения
Вы не можете удалять свои сообщения
Вы не можете голосовать в опросах
Вы не можете прикреплять файлы к сообщениям
Вы не можете скачивать файлы

!ВНИМАНИЕ!
Сайт не предоставляет электронные версии произведений, а занимается лишь коллекционированием и каталогизацией ссылок, присылаемых и публикуемых на форуме нашими читателями. Если вы являетесь правообладателем какого-либо представленного материала и не желаете, чтобы ссылка на него находилась в нашем каталоге, свяжитесь с нами, и мы незамедлительно удалим ее. Файлы для обмена на трекере предоставлены пользователями сайта, и администрация не несет ответственности за их содержание. Просьба не заливать файлы, защищенные авторскими правами, а также файлы нелегального содержания!