[ Сегодня идет свободное скачивание без начисления Download ]


Статистика раздачи
Качаю: [ 2 ]
Скачал: [ 10 ]
 
   
 
Top  
 
 
Profileschool | DaVinci Resolve 11 Lite. Базовый уровень (2015) PCRec [H.264] - Автор (режиссер): Дмитрий Ларионов / Profileschool
Жанр: Видеомонтаж, цветокоррекция
Продолжительность: 13:04:28
Качество видео: PCRec
Видео: AVC/H.264, 1920x1128, ~2000 kbps
Аудио: AAC, 2 ch, 192 kbps, CBR
Описание:
Несмотря на то, что обучение программе DaVinci Resolve ведется с нуля, курс подойдет далеко не всем учащимся школы, работающим над самообразованием и расширением областей своих профессиональных компетенций. Дело в том, что, являясь специализированным софтом для цветокоррекции, DaVinci имеет очень высокий входной порог по системным требованиям к железу и адекватно работает только при полном соответствии им.

Дополнительная информация:

Предполагается, что вы уже столкнулись с необходимостью цветокоррекции в видео, слышали о DaVinci, «прокачали» должным образом ваше «железо» и имеете твердое намерение работать в программе. Как начать эту работу, как сделать свое знакомство с софтом наименее затратным по времени и эффективным – расскажет действующий монтажер и известный тренер по всем монтажным системам Дмитрий Ларионов.
На курсе вы освоите уникальный интерфейс DaVinci, познакомитесь на практике с мощным функционалом, которым напичкана программа, научитесь оптимально решать искомые задачи, пройдете интересный путь с азов до мастерства незаметного монтажа. В результате вы сможете делать качественное видео или, при желании, рассмотреть возможность трудоустройства в отрасль, где владение софтом DaVinci является обязательным условием.

Mediainfo:

General
Complete name : F:\!Torrent\Profileschool - DaVinci Resolve 11 Lite. Базовый уровень\Занятие №1\1. Занятие.mp4
Format : MPEG-4
Format profile : Base Media
Codec ID : isom (isom/iso2/avc1/mp41)
File size : 2.36 GiB
Duration : 2h 28mn
Overall bit rate : 2 281 Kbps
Writing application : Lavf55.33.100
Video
ID : 2
Format : AVC
Format/Info : Advanced Video Codec
Format profile : Main@L4.2
Format settings, CABAC : Yes
Format settings, ReFrames : 3 frames
Format settings, GOP : M=1, N=25
Codec ID : avc1
Codec ID/Info : Advanced Video Coding
Duration : 2h 28mn
Bit rate : 2 082 Kbps
Width : 1 920 pixels
Height : 1 128 pixels
Display aspect ratio : 1.702
Frame rate mode : Constant
Frame rate : 30.000 fps
Color space : YUV
Chroma subsampling : 4:2:0
Bit depth : 8 bits
Scan type : Progressive
Bits/(Pixel*Frame) : 0.032
Stream size : 2.15 GiB (91%)
Audio
ID : 1
Format : AAC
Format/Info : Advanced Audio Codec
Format profile : LC
Codec ID : 40
Duration : 2h 28mn
Duration_LastFrame : -10ms
Bit rate mode : Constant
Bit rate : 192 Kbps
Channel(s) : 2 channels
Channel positions : Front: L R
Sampling rate : 44.1 KHz
Frame rate : 43.066 fps (1024 spf)
Compression mode : Lossy
Stream size : 203 MiB (8%)
Default : Yes
Alternate group : 1
Скриншоты:

[Цитировать]



Показать сообщения:    

Текущее время: 07-Дек 21:25

Часовой пояс: UTC + 3


Вы не можете начинать темы
Вы не можете отвечать на сообщения
Вы не можете редактировать свои сообщения
Вы не можете удалять свои сообщения
Вы не можете голосовать в опросах
Вы не можете прикреплять файлы к сообщениям
Вы не можете скачивать файлы

!ВНИМАНИЕ!
Сайт не предоставляет электронные версии произведений, а занимается лишь коллекционированием и каталогизацией ссылок, присылаемых и публикуемых на форуме нашими читателями. Если вы являетесь правообладателем какого-либо представленного материала и не желаете, чтобы ссылка на него находилась в нашем каталоге, свяжитесь с нами, и мы незамедлительно удалим ее. Файлы для обмена на трекере предоставлены пользователями сайта, и администрация не несет ответственности за их содержание. Просьба не заливать файлы, защищенные авторскими правами, а также файлы нелегального содержания!