[ Сегодня идет свободное скачивание без начисления Download ]


Статистика раздачи
Скачал: [ 1 ]
 
   
 
Top  
 
 
Титаник / Titanic (1997) BDRip-AVC | Open Mate | 60 fps Название: Титаник
Оригинальное название: Titanic
Год выпуска: 1997
Страна: США
Жанр: драма, мелодрама
Продолжительность: 03:14:54
Перевод: Dub, MVO, DVO, VO, Original
Субтитры: русские (Форсированные Blu-ray CEE), русские (Полные Blu-ray CEE), русские (Полные R5), украинские (Форсированные Blu-ray CEE), украинские (Полные Blu-ray CEE), английские (Полные)
Режиссер: Джеймс Кэмерон
В ролях: Леонардо ДиКаприо (Jack Dawson), Кейт Уинслет (Rose DeWitt Bukater), Билли Зейн (Caledon «Cal» Hockley), Кэти Бейтс (Molly Brown), Фрэнсис Фишер (Ruth Dewitt Bukater), Глория Стюарт (Old Rose), Билл Пэкстон (Brock Lovett), Бернард Хилл (Captain Edward James Smith), Дэвид Уорнер (Spicer Lovejoy), Виктор Гарбер (Thomas Andrews), Джонатан Хайд (Bruce Ismay), Сьюзи Эймис (Lizzy Calvert)
Описание:
Молодые влюбленные Джек и Роза находят друг друга в первом и последнем плавании «непотопляемого» Титаника. Они не могли знать, что шикарный лайнер столкнется с айсбергом в холодных водах Северной Атлантики, и их страстная любовь превратится в схватку со смертью...
Рейтинг:

MPAA: PG-13 - Детям до 13 лет просмотр не желателен
Качество: BDRip-AVC 60fps
Формат: MKV
Видео: AVC, 1024x576 (16:9), 4783 kbps, 60 fps, 0,135 bpp
Аудио 1: русский / AC3 / 5.1 / 48 kHz / 640 kbps / 16 bit |(Dub) Blu-Ray CEE|
Аудио 2: русский / AC3 / 5.1 / 48 kHz / 448 kbps / 16 bit |(Dub) R5 (Отдельно в папке)|
Аудио 3: русский / AC3 / 5.1 / 48 kHz / 448 kbps / 16 bit |(DVO) НТВ+ (Отдельно в папке)|
Аудио 4: русский / AC3 / 5.1 / 48 kHz / 384 kbps / 16 bit |(MVO) Киномания (Отдельно в папке)|
Аудио 5: русский / AC3 / 5.1 / 48 kHz / 640 kbps / 16 bit |(DVO) Гланц и Королева (Отдельно в папке)|
Аудио 6: русский / AC3 / 5.1 / 48 kHz / 640 kbps / 16 bit |(VO) Гаврилов (Отдельно в папке)|
Аудио 7: русский / AC3 / 5.1 / 48 kHz / 448 kbps / 16 bit |(VO) Живов (Отдельно в папке)|
Аудио 8: русский / AC3 / 2.0 / 48 kHz / 192 kbps / 16 bit |(VO) Визгунов (Отдельно в папке)|
Аудио 9: русский / AC3 / 2.0 / 48 kHz / 192 kbps / 16 bit |(VO) Кашкин (Отдельно в папке)|
Аудио 10: русский / AC3 / 2.0 / 48 kHz / 192 kbps / 16 bit |(VO) Антонов (Отдельно в папке)|
Аудио 11: украинский / AC3 / 5.1 / 48 kHz / 448 kbps / 16 bit |(Dub) Blu-ray CEE (Отдельно в папке)|
Аудио 12: украинский / AC3 / 2.0 / 48 kHz / 192 kbps / 16 bit |(MVO) 1+1 (Отдельно в папке)|
Аудио 13: украинский / AC3 / 2.0 / 48 kHz / 192 kbps / 16 bit |(MVO) Новый канал (Отдельно в папке)|
Аудио 14: английский / AC3 / 5.1 / 48 kHz / 640 kbps / 16 bit |(Original) Оригинал (Отдельно в папке)|
Навигация по главам: есть

ОтчетМедиаИнфо

General
Unique ID : 184389520749993509554600000681773974758 (0x8AB8214408A2D691AE7A8A1919A944E6)
Format : Matroska
Format version : Version 4 / Version 2
File size : 7.53 GiB
Duration : 3h 14mn
Overall bit rate mode : Variable
Overall bit rate : 5 534 Kbps
Movie name : Tiberiumsun69
Encoded date : UTC 2016-03-20 17:08:12
Writing application : mkvmerge v8.3.0 ('Over the Horizon') 64bit
Writing library : libebml v1.3.1 + libmatroska v1.4.2
Cover : Yes
Attachments : Cover.png
Video
ID : 1
Format : AVC
Format/Info : Advanced Video Codec
Format profile : High@L4.1
Format settings, CABAC : Yes
Format settings, ReFrames : 3 frames
Codec ID : V_MPEG4/ISO/AVC
Duration : 3h 14mn
Bit rate mode : Variable
Bit rate : 4 889 Kbps
Maximum bit rate : 5 000 Kbps
Width : 1 024 pixels
Height : 576 pixels
Display aspect ratio : 16:9
Frame rate mode : Constant
Frame rate : 60.000 fps
Standard : NTSC
Color space : YUV
Chroma subsampling : 4:2:0
Bit depth : 8 bits
Scan type : Progressive
Bits/(Pixel*Frame) : 0.138
Stream size : 6.66 GiB (88%)
Title : Tiberiumsun69
Language : English
Default : Yes
Forced : No
Color range : Limited
Color primaries : BT.601 PAL
Transfer characteristics : BT.470 System B, BT.470 System G
Matrix coefficients : BT.601
Audio
ID : 2
Format : AC-3
Format/Info : Audio Coding 3
Mode extension : CM (complete main)
Format settings, Endianness : Big
Codec ID : A_AC3
Duration : 3h 14mn
Bit rate mode : Constant
Bit rate : 640 Kbps
Channel(s) : 6 channels
Channel positions : Front: L C R, Side: L R, LFE
Sampling rate : 48.0 KHz
Frame rate : 31.250 fps (1536 spf)
Compression mode : Lossy
Stream size : 892 MiB (12%)
Title : Дубляж
Language : Russian
Default : Yes
Forced : No
Text #1
ID : 3
Format : UTF-8
Codec ID : S_TEXT/UTF8
Codec ID/Info : UTF-8 Plain Text
Duration : 3h 13mn
Bit rate : 0 bps
Count of elements : 7
Stream size : 243 Bytes (0%)
Title : Форсированные Blu-ray CEE
Language : Russian
Default : Yes
Forced : No
Text #2
ID : 4
Format : UTF-8
Codec ID : S_TEXT/UTF8
Codec ID/Info : UTF-8 Plain Text
Duration : 3h 13mn
Bit rate : 56 bps
Count of elements : 1884
Stream size : 80.3 KiB (0%)
Title : Полные Blu-ray CEE
Language : Russian
Default : No
Forced : No
Text #3
ID : 5
Format : UTF-8
Codec ID : S_TEXT/UTF8
Codec ID/Info : UTF-8 Plain Text
Duration : 3h 1mn
Bit rate : 83 bps
Count of elements : 2031
Stream size : 111 KiB (0%)
Title : Полные R5
Language : Russian
Default : No
Forced : No
Text #4
ID : 6
Format : UTF-8
Codec ID : S_TEXT/UTF8
Codec ID/Info : UTF-8 Plain Text
Duration : 3h 4mn
Bit rate : 0 bps
Count of elements : 7
Stream size : 256 Bytes (0%)
Title : Форсированные Blu-ray CEE
Language : Ukrainian
Default : No
Forced : No
Text #5
ID : 7
Format : UTF-8
Codec ID : S_TEXT/UTF8
Codec ID/Info : UTF-8 Plain Text
Duration : 3h 12mn
Bit rate : 67 bps
Count of elements : 1856
Stream size : 95.1 KiB (0%)
Title : Полные Blu-ray CEE
Language : Ukrainian
Default : No
Forced : No
Text #6
ID : 8
Format : UTF-8
Codec ID : S_TEXT/UTF8
Codec ID/Info : UTF-8 Plain Text
Duration : 3h 1mn
Bit rate : 46 bps
Count of elements : 2103
Stream size : 61.4 KiB (0%)
Title : Полные
Language : English
Default : No
Forced : No
Menu
00:00:00.000 : en:Opening Credits
00:01:24.375 : en:Ghost Ship
00:04:39.988 : en:Into the Wreck
00:08:26.130 : en:The Keldysh
00:10:46.771 : en:The Woman in the Picture
00:12:52.646 : en:Old Rose Arrives
00:16:52.427 : en:Reflections of the Past
00:20:07.748 : en:Back to Titanic
00:23:38.875 : en:A Lucky Hand
00:26:26.543 : en:Leaving Port
00:29:03.366 : en:Cherbourg
00:29:37.525 : en:Ode to Titanic
00:34:59.930 : en:First Glance
00:36:48.622 : en:"You Jump, I Jump"
00:42:59.159 : en:An Invitation to Dinner
00:45:26.098 : en:The Heart of the Ocean
00:47:11.620 : en:Sketches and Stories
00:53:33.042 : en:Learning New Things
00:56:47.987 : en:Dinner with Jack
01:05:32.052 : en:A Real Party
01:10:19.965 : en:A Cold Breakfast
01:14:06.358 : en:Sunday Prayer
01:16:10.690 : en:"They've Got You Trapped"
01:19:59.043 : en:Flying
01:22:50.506 : en:"That Was the Last Time..."
01:23:40.056 : en:The Drawing
01:28:21.629 : en:"My Heart Was Pounding"
01:29:19.854 : en:"Find Her"
01:32:52.274 : en:Two Souls United
01:36:59.104 : en:"Iceberg Right Ahead!"
01:44:41.149 : en:An Honest Thief
01:46:21.040 : en:A Mathematical Certainty
01:47:58.846 : en:A Stricken Relationship
01:50:11.103 : en:Andrews Tells Rose
01:52:21.400 : en:Women and Children First
01:53:54.326 : en:Third Class Patience
01:55:21.830 : en:A Small Token of Appreciation
01:56:10.879 : en:"Goodbye, Mother"
01:57:53.232 : en:"Can Anybody Hear Me?"
02:06:38.340 : en:A View From the Lifeboats
02:08:49.971 : en:Third Class Panic
02:11:22.081 : en:Starting to Fall Apart
02:15:42.550 : en:"Get on the Boat, Rose"
02:19:43.457 : en:Cal Spurned
02:21:24.558 : en:Flooding Below Decks
02:25:28.760 : en:Two Tragic Bullets
02:27:28.422 : en:Questions of Character
02:29:07.270 : en:Captain Smith
02:29:56.695 : en:Nearer My God to Thee
02:33:31.534 : en:Shattered Dreams
02:36:52.360 : en:At the Siren
02:38:33.878 : en:Prayer for the Dying
02:40:34.665 : en:Death of Titanic
02:45:00.639 : en:Sea of Humanity
02:47:48.807 : en:In the Lifeboats
02:49:22.526 : en:The Promise
02:52:09.609 : en:"We Waited Too Long"
02:53:41.326 : en:"I'll Never Let Go"
02:57:53.495 : en:Never an Absolution
02:59:35.305 : en:The Carpathia
03:01:29.252 : en:Expedition's End
03:03:13.648 : en:Rose's Secret
03:04:57.877 : en:A Promise Dept
03:07:19.643 : en:End Credits

[Цитировать]



Показать сообщения:    

Текущее время: 08-Дек 03:12

Часовой пояс: UTC + 3


Вы не можете начинать темы
Вы не можете отвечать на сообщения
Вы не можете редактировать свои сообщения
Вы не можете удалять свои сообщения
Вы не можете голосовать в опросах
Вы не можете прикреплять файлы к сообщениям
Вы не можете скачивать файлы

!ВНИМАНИЕ!
Сайт не предоставляет электронные версии произведений, а занимается лишь коллекционированием и каталогизацией ссылок, присылаемых и публикуемых на форуме нашими читателями. Если вы являетесь правообладателем какого-либо представленного материала и не желаете, чтобы ссылка на него находилась в нашем каталоге, свяжитесь с нами, и мы незамедлительно удалим ее. Файлы для обмена на трекере предоставлены пользователями сайта, и администрация не несет ответственности за их содержание. Просьба не заливать файлы, защищенные авторскими правами, а также файлы нелегального содержания!