[ Сегодня идет свободное скачивание без начисления Download ]


Статистика раздачи
Нет
 
   
 
Top  
 
 
Ирина Качевская | Зимняя фантазия (2015) PCRec 720p - Автор (режиссер): Ирина Качевская
Жанр: Вэб-дизайн, Photoshop
Описание:
В уроке рассмотрим: коррекция в камера RAW, прорисовка светотени, тонирование, цветокоррекция и ретушь, добавление текстуры.
Продолжительность: 01:26:26
Качество видео: PCRec
Видео: AVC, 1280x720, ~285 Kbps
Аудио: AAC, 2 ch, 254 Kbps, VBR

Mediainfo:

Общее
Полное имя                               : C:\Урок. Зимняя фантазия - 2015.mp4
Формат                                   : MPEG-4
Профиль формата                          : Base Media / Version 2
Идентификатор кодека                     : mp42 (isom/mp42)
Размер файла                             : 335 Мбайт
Продолжительность                        : 1 ч. 26 м.
Режим общего битрейта                    : Переменный
Общий поток                              : 541 Кбит/сек
Дата кодирования                         : UTC 2015-02-22 19:12:06
Дата пометки                             : UTC 2015-02-22 19:12:06
Видео
Идентификатор                            : 1
Формат                                   : AVC
Формат/Информация                        : Advanced Video Codec
Профиль формата                          : Main@L3.1
Параметр CABAC формата                   : Да
Параметр ReFrames формата                : 3 кадра
Идентификатор кодека                     : avc1
Идентификатор кодека/Информация          : Advanced Video Coding
Продолжительность                        : 1 ч. 26 м.
Продолжительность оригинала              : 1 ч. 26 м.
Битрейт                                  : 285 Кбит/сек
Ширина                                   : 1280 пикселей
Высота                                   : 720 пикселей
Соотношение сторон                       : 16:9
Режим частоты кадров                     : Постоянный
Частота кадров                           : 30,000 кадров/сек
Стандарт вещания                         : NTSC
Цветовое пространство                    : YUV
Субдискретизация насыщенности            : 4:2:0
Битовая глубина                          : 8 бит
Тип развёртки                            : Прогрессивная
Бит/(Пиксели*Кадры)                      : 0.010
Размер потока                            : 176 Мбайт (53%)
Размер потока оригинала                  : 176 Мбайт (53%)
Язык                                     : English
Дата кодирования                         : UTC 2015-02-22 19:12:07
Дата пометки                             : UTC 2015-02-22 19:12:07
Цветовой диапазон                        : Limited
Аудио
Идентификатор                            : 2
Формат                                   : AAC
Формат/Информация                        : Advanced Audio Codec
Профиль формата                          : LC
Идентификатор кодека                     : 40
Продолжительность                        : 1 ч. 26 м.
Вид битрейта                             : Переменный
Битрейт                                  : 254 Кбит/сек
Максимальный битрейт                     : 406 Кбит/сек
Каналы                                   : 2 канала
Расположение каналов                     : Front: L R
Частота                                  : 44,1 КГц
Частота кадров                           : 43,066 кадра/сек (1024 spf)
Метод сжатия                             : С потерями
Размер потока                            : 157 Мбайт (47%)
Язык                                     : English
Дата кодирования                         : UTC 2015-02-22 19:12:07
Дата пометки                             : UTC 2015-02-22 19:12:07
Скриншоты:

[Цитировать]



Показать сообщения:    

Текущее время: 22-Фев 18:48

Часовой пояс: UTC + 3


Вы не можете начинать темы
Вы не можете отвечать на сообщения
Вы не можете редактировать свои сообщения
Вы не можете удалять свои сообщения
Вы не можете голосовать в опросах
Вы не можете прикреплять файлы к сообщениям
Вы не можете скачивать файлы

!ВНИМАНИЕ!
Сайт не предоставляет электронные версии произведений, а занимается лишь коллекционированием и каталогизацией ссылок, присылаемых и публикуемых на форуме нашими читателями. Если вы являетесь правообладателем какого-либо представленного материала и не желаете, чтобы ссылка на него находилась в нашем каталоге, свяжитесь с нами, и мы незамедлительно удалим ее. Файлы для обмена на трекере предоставлены пользователями сайта, и администрация не несет ответственности за их содержание. Просьба не заливать файлы, защищенные авторскими правами, а также файлы нелегального содержания!