[ Сегодня идет свободное скачивание без начисления Download ]


Статистика раздачи
Нет
 
   
 
Top  
 
 
- Наркополис / Narcopolis (2015) HDRip 720p«The future is a fix»- Производство: Великобритания, Squared Films
Жанр: Фантастика, триллер, детектив
Режиссер: Джастин Трефгарн
Актеры: Джеймс Кэллис, Керри Шейл, Гарри Ллойд, Элоди Юнг, Эллиот Кауэн, Марк Рэмси, Роберт Бафёрст, Молли Гейсфорд, Косима Шоу
Описание:
В недалёком будущем многое изменилось. Технологии совершили огромный скачок, а правительство легализовало все виды увеселительных наркотиков. Полицейский нового порядка в Наркополисе Фрэнк Гривз занимается контролем за соблюдением законов о наркотических веществах, пресекая любые попытки распространения несертифицированных веществ на улицах и поддерживая продуктивную деятельность огромных корпораций, зарабатывающих миллиарды долларов на популярном товаре.Обычное расследование о передозировке парня от неизвестного наркотика, приводит Френка к корпорации Амбро, занимающуюся противозаконным испытаниями на людях. Его отстраняют от дела без видимых причин,но напористый коп продолжает самостоятельное расследование, ведущее его к шокирующему знанию, которое может изменить весь мир.

Дата мировой премьеры: 25 сентября 2015
Продолжительность: 01:35:44
Качество видео: HDRip Сэмпл
Перевод: Любительский одноголосый (Хихикающий доктор)
Субтитры: Английские (вшитые, отключаемые)
Видео: AVC, 1280x534 (2.40:1), 23.976 fps, 5 500 Kbps (0.317 bit/pixel)
Аудио: MP3, 44.1 KHz, 2 ch, 192 Kbps, CBR (Russian)
Аудио: AC-3, 48.0 KHz, 6 ch, 384 Kbps, CBR (English)

Mediainfo:

Формат                                   : Matroska
Версия формата                           : Version 4 / Version 2
Размер файла                             : 3,94 Гбайт
Продолжительность                        : 1 ч. 35 м.
Общий поток                              : 5896 Кбит/сек
Название фильма                          : RARBG.COM - Narcopolis.2015.720p.BluRay.x264.DTS-RARBG
Дата кодирования                         : UTC 2015-11-01 23:36:56
Программа кодирования                    : mkvmerge v8.3.0 ('Over the Horizon') 64bit
Библиотека кодирования                   : Lavf56.22.100
DURATION                                 : 01:30:18.538000000
NUMBER_OF_FRAMES                         : 1006
NUMBER_OF_BYTES                          : 36509
_STATISTICS_WRITING_APP                  : mkvmerge v8.3.0 ('Over the Horizon') 64bit
_STATISTICS_WRITING_DATE_UTC             : 2016-03-22 18:24:49
_STATISTICS_TAGS                         : BPS DURATION NUMBER_OF_FRAMES NUMBER_OF_BYTES
Видео
Идентификатор                            : 1
Формат                                   : AVC
Формат/Информация                        : Advanced Video Codec
Профиль формата                          : [url=mailto:High@L4.1]High@L4.1[/url]
Параметр CABAC формата                   : Да
Параметр ReFrames формата                : 4 кадра
Идентификатор кодека                     : V_MPEG4/ISO/AVC
Продолжительность                        : 1 ч. 35 м.
Битрейт                                  : 5203 Кбит/сек
Номинальный битрейт                      : 5500 Кбит/сек
Ширина                                   : 1280 пикселей
Высота                                   : 534 пикселя
Соотношение сторон                       : 2,40:1
Соотношение сторон в оригинале           : 2,40:1
Режим частоты кадров                     : Постоянный
Частота кадров                           : 23,976 кадра/сек
Цветовое пространство                    : YUV
Субдискретизация насыщенности            : 4:2:0
Битовая глубина                          : 8 бит
Тип развёртки                            : Прогрессивная
Бит/(Пиксели*Кадры)                      : 0.317
Размер потока                            : 3,48 Гбайт (88%)
Заголовок                                : Narcopolis.2015.720p.BluRay.x264.DTS-RARBG
Библиотека кодирования                   : x264 core 146 r2555 0c21480
Настройки программы                      : cabac=1 / ref=4 / deblock=1:-2:-2 / analyse=0x3:0x113 / me=umh / subme=7 / psy=1 / psy_rd=1.00:0.15 / mixed_ref=1 / me_range=16 / chroma_me=1 / trellis=1 / 8x8dct=1 / cqm=0 / deadzone=21,11 / fast_pskip=1 / chroma_qp_offset=-3 / threads=12 / lookahead_threads=3 / sliced_threads=0 / nr=0 / decimate=1 / interlaced=0 / bluray_compat=0 / constrained_intra=0 / bframes=3 / b_pyramid=2 / b_adapt=2 / b_bias=0 / direct=3 / weightb=1 / open_gop=0 / weightp=2 / keyint=250 / keyint_min=25 / scenecut=40 / intra_refresh=0 / rc_lookahead=50 / rc=abr / mbtree=1 / bitrate=5500 / ratetol=1.0 / qcomp=0.60 / qpmin=0 / qpmax=69 / qpstep=4 / vbv_maxrate=31250 / vbv_bufsize=31250 / nal_hrd=none / filler=0 / ip_ratio=1.40 / aq=1:1.00
Язык                                     : English
Default                                  : Да
Forced                                   : Нет
Аудио #1
Идентификатор                            : 4
Формат                                   : MPEG Audio
Версия формата                           : Version 1
Профиль формата                          : Layer 3
Идентификатор кодека                     : A_MPEG/L3
Идентификатор кодека/Подсказка           : MP3
Продолжительность                        : 1 ч. 35 м.
Вид битрейта                             : Постоянный
Битрейт                                  : 192 Кбит/сек
Каналы                                   : 2 канала
Частота                                  : 44,1 КГц
Метод сжатия                             : С потерями
Размер потока                            : 131 Мбайт (3%)
Язык                                     : Russian
Default                                  : Да
Forced                                   : Нет
Аудио #2
Идентификатор                            : 5
Формат                                   : AC-3
Формат/Информация                        : Audio Coding 3
Расширение режима                        : CM (complete main)
Параметр Endianness формата              : Big
Идентификатор кодека                     : A_AC3
Продолжительность                        : 1 ч. 35 м.
Вид битрейта                             : Постоянный
Битрейт                                  : 384 Кбит/сек
Каналы                                   : 6 каналов
Расположение каналов                     : Front: L C R, Side: L R, LFE
Частота                                  : 48,0 КГц
Битовая глубина                          : 16 бит
Метод сжатия                             : С потерями
Размер потока                            : 263 Мбайт (7%)
Язык                                     : English
Default                                  : Нет
Forced                                   : Нет
Текст #1
Идентификатор                            : 2
Формат                                   : UTF-8
Идентификатор кодека                     : S_TEXT/UTF8
Идентификатор кодека/Информация          : UTF-8 Plain Text
Язык                                     : English
Default                                  : Нет
Forced                                   : Нет
Текст #2
Идентификатор                            : 3
Формат                                   : UTF-8
Идентификатор кодека                     : S_TEXT/UTF8
Идентификатор кодека/Информация          : UTF-8 Plain Text
Заголовок                                : SDH
Язык                                     : English
Default                                  : Нет
Forced                                   : Нет
Текст #3
Идентификатор                            : 6
Формат                                   : UTF-8
Идентификатор кодека                     : S_TEXT/UTF8
Идентификатор кодека/Информация          : UTF-8 Plain Text
Язык                                     : English
Default                                  : Нет
Forced                                   : Нет
Текст #4
Идентификатор                            : 7
Формат                                   : UTF-8
Идентификатор кодека                     : S_TEXT/UTF8
Идентификатор кодека/Информация          : UTF-8 Plain Text
Язык                                     : English
Default                                  : Нет
Forced                                   : Нет
Текст #5
Идентификатор                            : 8
Формат                                   : UTF-8
Идентификатор кодека                     : S_TEXT/UTF8
Идентификатор кодека/Информация          : UTF-8 Plain Text
Язык                                     : English
Default                                  : Нет
Forced                                   : Нет
Текст #6
Идентификатор                            : 9
Формат                                   : UTF-8
Идентификатор кодека                     : S_TEXT/UTF8
Идентификатор кодека/Информация          : UTF-8 Plain Text
Заголовок                                : SDH
Язык                                     : English
Default                                  : Нет
Forced                                   : Нет
Меню
00:00:00.000                             : en:Chapter 01
00:05:15.565                             : en:Chapter 02
00:11:28.312                             : en:Chapter 03
00:17:47.316                             : en:Chapter 04
00:24:54.910                             : en:Chapter 05
00:30:41.756                             : en:Chapter 06
00:36:19.260                             : en:Chapter 07
00:41:12.678                             : en:Chapter 08
00:48:24.735                             : en:Chapter 09
00:55:05.844                             : en:Chapter 10
00:59:59.846                             : en:Chapter 11
01:07:17.074                             : en:Chapter 12
01:14:49.902                             : en:Chapter 13
01:18:12.312                             : en:Chapter 14
01:23:50.984                             : en:Chapter 15
01:30:35.930                             : en:Chapter 16
Скриншоты:

[Цитировать]



Показать сообщения:    

Текущее время: 09-Дек 01:08

Часовой пояс: UTC + 3


Вы не можете начинать темы
Вы не можете отвечать на сообщения
Вы не можете редактировать свои сообщения
Вы не можете удалять свои сообщения
Вы не можете голосовать в опросах
Вы не можете прикреплять файлы к сообщениям
Вы не можете скачивать файлы

!ВНИМАНИЕ!
Сайт не предоставляет электронные версии произведений, а занимается лишь коллекционированием и каталогизацией ссылок, присылаемых и публикуемых на форуме нашими читателями. Если вы являетесь правообладателем какого-либо представленного материала и не желаете, чтобы ссылка на него находилась в нашем каталоге, свяжитесь с нами, и мы незамедлительно удалим ее. Файлы для обмена на трекере предоставлены пользователями сайта, и администрация не несет ответственности за их содержание. Просьба не заливать файлы, защищенные авторскими правами, а также файлы нелегального содержания!