[ Сегодня идет свободное скачивание без начисления Download ]


Статистика раздачи
Нет
 
   
 
Top  
 
 
Разборка в Маниле / Showdown in Manila- Год выпуска: 2016
Выпущено: США, Россия / Hollywood Storm
Жанр: боевик
Продолжительность: 01:25:57
Перевод: Профессиональный (полное дублирование)
Cубтитры: нет-Режиссер:
Марк Дакаскос / Mark Dacascos-В ролях:
Александр Невский, Каспер Ван Дин, Кэри-Хироюки Тагава, Марк Дакаскос, Маттиас Хьюз, Синтия Ротрок, Дон «Дракон» Уилсон, Оливье Грюнер, Дмитрий Дюжев, Тиа Каррере, Джейк Макапагал, Иса Кальсадо-Описание:
Частные детективы Ник и Чарли живут и работают в Маниле. Расследование убийства выводит их на след международного террориста по кличке «Призрак», лагерь которого находится в филиппинских джунглях. Не доверяя полиции, Ник и Чарли собирают небольшую команду смельчаков и отправляются в логово «Призрака», которое охраняет армия наемников-головорезов…-Качество: WEB-DLRip [WEB-DL | 1080p]
Формат: AVI
Видео: 704x368 (1.91:1), 25 fps, XviD build 67 ~2023 kbps avg, 0.31 bit/pixel
Аудио: 48 kHz, AC3 Dolby Digital, 3/2 (L,C,R,l,r) + LFE ch, ~384.00 kbps avg - iTunes Russia
-

Скриншоты

-

MediaInfo

General
Complete name                            : D:\Razborkav_v_Manile_2016_WEB-DLRip_iT_by_Dalemake.avi
Format                                   : AVI
Format/Info                              : Audio Video Interleave
File size                                : 1.45 GiB
Duration                                 : 1h 25mn
Overall bit rate                         : 2 417 Kbps
Writing application                      : VirtualDubMod 1.5.10.3 | www.virtualdub-fr.org || (build 2550/release)
Writing library                          : VirtualDubMod build 2550/release
Video
ID                                       : 0
Format                                   : MPEG-4 Visual
Format profile                           : Advanced [email protected]
Format settings, BVOP                    : 1
Format settings, QPel                    : No
Format settings, GMC                     : No warppoints
Format settings, Matrix                  : Custom
Codec ID                                 : XVID
Codec ID/Hint                            : XviD
Duration                                 : 1h 25mn
Bit rate                                 : 2 024 Kbps
Width                                    : 704 pixels
Height                                   : 368 pixels
Display aspect ratio                     : 1.913
Frame rate                               : 25.000 fps
Color space                              : YUV
Chroma subsampling                       : 4:2:0
Bit depth                                : 8 bits
Scan type                                : Progressive
Compression mode                         : Lossy
Bits/(Pixel*Frame)                       : 0.312
Stream size                              : 1.21 GiB (84%)
Writing library                          : XviD 67
Audio
ID                                       : 1
Format                                   : AC-3
Format/Info                              : Audio Coding 3
Mode extension                           : CM (complete main)
Format settings, Endianness              : Big
Codec ID                                 : 2000
Duration                                 : 1h 25mn
Bit rate mode                            : Constant
Bit rate                                 : 384 Kbps
Channel(s)                               : 6 channels
Channel positions                        : Front: L C R, Side: L R, LFE
Sampling rate                            : 48.0 KHz
Frame rate                               : 31.250 fps (1536 spf)
Compression mode                         : Lossy
Stream size                              : 236 MiB (16%)
Alignment                                : Split accross interleaves
Interleave, duration                     : 40 ms (1.00 video frame)
Interleave, preload duration             : 500 ms

[Цитировать]



Показать сообщения:    

Текущее время: 05-Дек 07:32

Часовой пояс: UTC + 3


Вы не можете начинать темы
Вы не можете отвечать на сообщения
Вы не можете редактировать свои сообщения
Вы не можете удалять свои сообщения
Вы не можете голосовать в опросах
Вы не можете прикреплять файлы к сообщениям
Вы не можете скачивать файлы

!ВНИМАНИЕ!
Сайт не предоставляет электронные версии произведений, а занимается лишь коллекционированием и каталогизацией ссылок, присылаемых и публикуемых на форуме нашими читателями. Если вы являетесь правообладателем какого-либо представленного материала и не желаете, чтобы ссылка на него находилась в нашем каталоге, свяжитесь с нами, и мы незамедлительно удалим ее. Файлы для обмена на трекере предоставлены пользователями сайта, и администрация не несет ответственности за их содержание. Просьба не заливать файлы, защищенные авторскими правами, а также файлы нелегального содержания!