[ Today is free to download without increasing Download ]

DL-List and Torrent activity
Разборка в Маниле / Showdown in Manila- Год выпуска: 2016
Выпущено: США, Россия / Hollywood Storm
Жанр: боевик
Продолжительность: 01:25:57
Перевод: Профессиональный (полное дублирование)
Cубтитры: нет-Режиссер:
Марк Дакаскос / Mark Dacascos-В ролях:
Александр Невский, Каспер Ван Дин, Кэри-Хироюки Тагава, Марк Дакаскос, Маттиас Хьюз, Синтия Ротрок, Дон «Дракон» Уилсон, Оливье Грюнер, Дмитрий Дюжев, Тиа Каррере, Джейк Макапагал, Иса Кальсадо-Описание:
Частные детективы Ник и Чарли живут и работают в Маниле. Расследование убийства выводит их на след международного террориста по кличке «Призрак», лагерь которого находится в филиппинских джунглях. Не доверяя полиции, Ник и Чарли собирают небольшую команду смельчаков и отправляются в логово «Призрака», которое охраняет армия наемников-головорезов…-Качество: WEB-DLRip [WEB-DL | 1080p]
Формат: AVI
Видео: 704x368 (1.91:1), 25 fps, XviD build 67 ~2023 kbps avg, 0.31 bit/pixel
Аудио: 48 kHz, AC3 Dolby Digital, 3/2 (L,C,R,l,r) + LFE ch, ~384.00 kbps avg - iTunes Russia




Complete name                            : D:\Razborkav_v_Manile_2016_WEB-DLRip_iT_by_Dalemake.avi
Format                                   : AVI
Format/Info                              : Audio Video Interleave
File size                                : 1.45 GiB
Duration                                 : 1h 25mn
Overall bit rate                         : 2 417 Kbps
Writing application                      : VirtualDubMod | www.virtualdub-fr.org || (build 2550/release)
Writing library                          : VirtualDubMod build 2550/release
ID                                       : 0
Format                                   : MPEG-4 Visual
Format profile                           : Advanced Simple@L5
Format settings, BVOP                    : 1
Format settings, QPel                    : No
Format settings, GMC                     : No warppoints
Format settings, Matrix                  : Custom
Codec ID                                 : XVID
Codec ID/Hint                            : XviD
Duration                                 : 1h 25mn
Bit rate                                 : 2 024 Kbps
Width                                    : 704 pixels
Height                                   : 368 pixels
Display aspect ratio                     : 1.913
Frame rate                               : 25.000 fps
Color space                              : YUV
Chroma subsampling                       : 4:2:0
Bit depth                                : 8 bits
Scan type                                : Progressive
Compression mode                         : Lossy
Bits/(Pixel*Frame)                       : 0.312
Stream size                              : 1.21 GiB (84%)
Writing library                          : XviD 67
ID                                       : 1
Format                                   : AC-3
Format/Info                              : Audio Coding 3
Mode extension                           : CM (complete main)
Format settings, Endianness              : Big
Codec ID                                 : 2000
Duration                                 : 1h 25mn
Bit rate mode                            : Constant
Bit rate                                 : 384 Kbps
Channel(s)                               : 6 channels
Channel positions                        : Front: L C R, Side: L R, LFE
Sampling rate                            : 48.0 KHz
Frame rate                               : 31.250 fps (1536 spf)
Compression mode                         : Lossy
Stream size                              : 236 MiB (16%)
Alignment                                : Split accross interleaves
Interleave, duration                     : 40 ms (1.00 video frame)
Interleave, preload duration             : 500 ms


Display posts:    

Current time is: 26-Oct 03:32

All times are UTC + 3

You cannot post new topics in this forum
You cannot reply to topics in this forum
You cannot edit your posts in this forum
You cannot delete your posts in this forum
You cannot vote in polls in this forum
You cannot attach files in this forum
You cannot download files in this forum

The site does not give electronic versions of products, and is engaged only in a collecting and cataloguing of the references sent and published at a forum by our readers. If you are the legal owner of any submitted material and do not wish that the reference to it was in our catalogue, contact us and we shall immediately remove her. Files for an exchange on tracker are given by users of a site, and the administration does not bear the responsibility for their maintenance. The request to not fill in the files protected by copyrights, and also files of the illegal maintenance!