[ Сегодня идет свободное скачивание без начисления Download ]


Статистика раздачи
Нет
 
   
 
Top  
 
 
Бандиты / Bandits (2001) BDRip 1080p Информация о фильме
Название: Бандиты
Оригинальное название: Bandits
Год выхода: 2001
Жанр: Драма, мелодрама, комедия, криминал
Режиссер: Барри Левинсон
В ролях: Брюс Уиллис, Билли Боб Торнтон, Кейт Бланшетт, Трой Гэрити, Брайан Ф. О'Бирн, Стэйси Трэвис, Бобби Слэйтон, Дженьюэри Джонс, Азура Скай, Пегги Майли
О фильме:
Встречайте Джо Блейка и Терри Коллинза — самых удачливых грабителей банков в истории Америки! Неотразимый мачо Джо и фантастический ипохондрик Терри, вечно жалующийся на воображаемые недуги, без единого выстрела, на одном великом своем обаянии и очаровательном нахальстве взяли больше банков, чем кто-либо. Казалось, удача никогда не оставит этих вежливых и остроумных налетчиков, ставших чуть ли не национальными героями. Но вот волею судеб в компанию героев попадает захотевшая вкусить приключений бедовая домохозяйка Кейт Уилер, в которую они оба немедленно влюбляются — и все в жизни парней идет кувырком!

Страна: США
Студия: Baltimore Spring Creek Productions, Cheyenne Enterprises, Empire Pictures, Epsilon Motion Pictures, Lotus Pictures, MGM
Продолжительность: 02:03:00
Перевод: Профессиональный многоголосый (R5, Видеосервис), профессиональный многоголосый, авторский одноголосый (А. Гаврилов), авторский одноголосый (Ю. Живов)
Файл
Кодек: MPEG4 Video (H264)
Качество: BDRip 1080p | P, A
Видео: 1920x820, 8133 Кбит/сек, 23.976fps
Звук:
Аудио #1: Русский, Dolby AC3, 448 Кбит/с, 6 каналов (5.1) - MVO, R5
Аудио #2: Русский, Dolby AC3, 384 Кбит/с, 6 каналов (5.1) - MVO
Аудио #3: Русский, Dolby AC3, 448 Кбит/с, 6 каналов (5.1) - AVO [А. Гаврилов]
Аудио #4: Русский, Dolby AC3, 448 Кбит/с, 6 каналов (5.1) - AVO [Ю. Живов]
Аудио #5: Английский, Dolby AC3, 448 Кбит/с, 6 каналов (5.1) - Оригинал
Субтитры: Русские, английские (Полные, SDH)

Mediainfo

x264 [info]: frame I:1242 Avg QP:16.92 size:157991
x264 [info]: frame P:41488 Avg QP:18.92 size: 69823
x264 [info]: frame B:134229 Avg QP:21.16 size: 32842
x264 [info]: consecutive B-frames: 3.4% 4.5% 12.3% 11.0% 15.6% 44.0% 5.2% 2.0% 2.0%
Общее
Уникальный идентификатор : 243616513628498074222368535637602046292 (0xB746D5777BF60D40B0690289CB4F9154)
Полное имя : D:FilmBandits.2001.BDRip.1080p.mkv
Формат : Matroska
Версия формата : Version 2
Размер файла : 8,86 Гбайт
Продолжительность : 2 ч. 3 м.
Общий поток : 10,3 Мбит/сек
Название фильма : -=WALLEDOL=-
Дата кодирования : UTC 2016-03-22 15:07:30
Программа кодирования : mkvmerge v4.0.0 ('The Stars were mine') сборка от Jun 6 2010 16:18:42
Библиотека кодирования : libebml v1.0.0 + libmatroska v1.0.0
Видео
Идентификатор : 1
Формат : AVC
Формат/Информация : Advanced Video Codec
Профиль формата : High@L4.1
Параметр CABAC формата : Да
Параметр ReFrames формата : 5 кадров
Идентификатор кодека : V_MPEG4/ISO/AVC
Продолжительность : 2 ч. 3 м.
Битрейт : 8133 Кбит/сек
Ширина : 1920 пикселей
Высота : 820 пикселей
Соотношение сторон : 2,35:1
Режим частоты кадров : Постоянный
Частота кадров : 23,976 (23976/1000) кадра/сек
Цветовое пространство : YUV
Субдискретизация насыщенности : 4:2:0
Битовая глубина : 8 бит
Тип развёртки : Прогрессивная
Бит/(Пиксели*Кадры) : 0.215
Размер потока : 6,81 Гбайт (77%)
Заголовок : Bandits.2001.BDRip.1080p
Библиотека кодирования : x264 core 148 r2665 a01e339
Настройки программы : cabac=1 / ref=5 / deblock=1:-3:-3 / analyse=0x3:0x133 / me=umh / subme=10 / psy=1 / psy_rd=1.00:0.15 / mixed_ref=1 / me_range=32 / chroma_me=1 / trellis=2 / 8x8dct=1 / cqm=0 / deadzone=21,11 / fast_pskip=0 / chroma_qp_offset=-3 / threads=6 / lookahead_threads=1 / sliced_threads=0 / nr=0 / decimate=1 / interlaced=0 / bluray_compat=0 / constrained_intra=0 / bframes=8 / b_pyramid=2 / b_adapt=2 / b_bias=0 / direct=3 / weightb=1 / open_gop=0 / weightp=2 / keyint=240 / keyint_min=23 / scenecut=40 / intra_refresh=0 / rc=2pass / mbtree=0 / bitrate=8133 / ratetol=1.0 / qcomp=0.60 / qpmin=0 / qpmax=69 / qpstep=4 / cplxblur=20.0 / qblur=0.5 / ip_ratio=1.40 / pb_ratio=1.30 / aq=1:0.70
Язык : English
Default : Нет
Forced : Нет
Аудио #1
Идентификатор : 2
Формат : AC-3
Формат/Информация : Audio Coding 3
Расширение режима : CM (complete main)
Параметр Endianness формата : Big
Идентификатор кодека : A_AC3
Продолжительность : 2 ч. 3 м.
Вид битрейта : Постоянный
Битрейт : 448 Кбит/сек
Каналы : 6 каналов
Расположение каналов : Front: L C R, Side: L R, LFE
Частота : 48,0 КГц
Частота кадров : 31,250 кадров/сек (1536 spf)
Метод сжатия : С потерями
Размер потока : 394 Мбайт (4%)
Заголовок : MVO R5
Язык : Russian
Default : Да
Forced : Да
Аудио #2
Идентификатор : 3
Формат : AC-3
Формат/Информация : Audio Coding 3
Расширение режима : CM (complete main)
Параметр Endianness формата : Big
Идентификатор кодека : A_AC3
Продолжительность : 2 ч. 3 м.
Вид битрейта : Постоянный
Битрейт : 384 Кбит/сек
Каналы : 6 каналов
Расположение каналов : Front: L C R, Side: L R, LFE
Частота : 48,0 КГц
Частота кадров : 31,250 кадров/сек (1536 spf)
Метод сжатия : С потерями
Размер потока : 338 Мбайт (4%)
Заголовок : MVO
Язык : Russian
Default : Нет
Forced : Нет
Аудио #3
Идентификатор : 4
Формат : AC-3
Формат/Информация : Audio Coding 3
Расширение режима : CM (complete main)
Параметр Endianness формата : Big
Идентификатор кодека : A_AC3
Продолжительность : 2 ч. 3 м.
Вид битрейта : Постоянный
Битрейт : 448 Кбит/сек
Каналы : 6 каналов
Расположение каналов : Front: L C R, Side: L R, LFE
Частота : 48,0 КГц
Частота кадров : 31,250 кадров/сек (1536 spf)
Метод сжатия : С потерями
Размер потока : 394 Мбайт (4%)
Заголовок : AVO [А. Гаврилов]
Язык : Russian
Default : Нет
Forced : Нет
Аудио #4
Идентификатор : 5
Формат : AC-3
Формат/Информация : Audio Coding 3
Расширение режима : CM (complete main)
Параметр Endianness формата : Big
Идентификатор кодека : A_AC3
Продолжительность : 2 ч. 3 м.
Вид битрейта : Постоянный
Битрейт : 448 Кбит/сек
Каналы : 6 каналов
Расположение каналов : Front: L C R, Side: L R, LFE
Частота : 48,0 КГц
Частота кадров : 31,250 кадров/сек (1536 spf)
Метод сжатия : С потерями
Размер потока : 394 Мбайт (4%)
Заголовок : AVO [Ю. Живов]
Язык : Russian
Default : Нет
Forced : Нет
Аудио #5
Идентификатор : 6
Формат : AC-3
Формат/Информация : Audio Coding 3
Расширение режима : CM (complete main)
Параметр Endianness формата : Big
Идентификатор кодека : A_AC3
Продолжительность : 2 ч. 3 м.
Вид битрейта : Постоянный
Битрейт : 448 Кбит/сек
Каналы : 6 каналов
Расположение каналов : Front: L C R, Side: L R, LFE
Частота : 48,0 КГц
Частота кадров : 31,250 кадров/сек (1536 spf)
Метод сжатия : С потерями
Размер потока : 394 Мбайт (4%)
Язык : English
Default : Нет
Forced : Нет
Текст #1
Идентификатор : 7
Формат : UTF-8
Идентификатор кодека : S_TEXT/UTF8
Идентификатор кодека/Информация : UTF-8 Plain Text
Заголовок : Ful
Язык : Russian
Default : Нет
Forced : Нет
Текст #2
Идентификатор : 8
Формат : UTF-8
Идентификатор кодека : S_TEXT/UTF8
Идентификатор кодека/Информация : UTF-8 Plain Text
Заголовок : Full
Язык : English
Default : Нет
Forced : Нет
Текст #3
Идентификатор : 9
Формат : UTF-8
Идентификатор кодека : S_TEXT/UTF8
Идентификатор кодека/Информация : UTF-8 Plain Text
Заголовок : SDH
Язык : English
Default : Нет
Forced : Нет
Меню
00:00:00.000 : en:Chapter 1
00:05:54.145 : en:Chapter 2
00:08:56.703 : en:Chapter 3
00:12:37.507 : en:Chapter 4
00:18:36.866 : en:Chapter 5
00:22:57.666 : en:Chapter 6
00:31:39.147 : en:Chapter 7
00:36:08.875 : en:Chapter 8
00:41:37.203 : en:Chapter 9
00:47:21.338 : en:Chapter 10
00:56:50.866 : en:Chapter 11
01:02:03.553 : en:Chapter 12
01:09:32.585 : en:Chapter 13
01:19:43.404 : en:Chapter 14
01:23:55.030 : en:Chapter 15
01:30:39.142 : en:Chapter 16
01:39:09.777 : en:Chapter 17
01:44:31.140 : en:Chapter 18
01:47:35.991 : en:Chapter 19
01:56:46.541 : en:Chapter 20
02:01:30.022 : en:Chapter 21

Скриншоты

[Цитировать]



Показать сообщения:    

Текущее время: 11-Дек 05:12

Часовой пояс: UTC + 3


Вы не можете начинать темы
Вы не можете отвечать на сообщения
Вы не можете редактировать свои сообщения
Вы не можете удалять свои сообщения
Вы не можете голосовать в опросах
Вы не можете прикреплять файлы к сообщениям
Вы не можете скачивать файлы

!ВНИМАНИЕ!
Сайт не предоставляет электронные версии произведений, а занимается лишь коллекционированием и каталогизацией ссылок, присылаемых и публикуемых на форуме нашими читателями. Если вы являетесь правообладателем какого-либо представленного материала и не желаете, чтобы ссылка на него находилась в нашем каталоге, свяжитесь с нами, и мы незамедлительно удалим ее. Файлы для обмена на трекере предоставлены пользователями сайта, и администрация не несет ответственности за их содержание. Просьба не заливать файлы, защищенные авторскими правами, а также файлы нелегального содержания!