[ Сегодня идет свободное скачивание без начисления Download ]


Статистика раздачи
Нет
 
   
 
Top  
 
 
Голова над водой / Head Above Water (1996) WEB-DLRip Информация о фильме
Название: Голова над водой
Оригинальное название: Head Above Water
Год выхода: 1996
Жанр: Комедия, Триллер
Режиссер: Джим Уилсон /Jim Wilson/
В ролях: Кэмерон Диаз, Харви Кейтель, Крэйг Шеффер, Билли Зейн, Шэй Даффин
О фильме:
Очаровательной молодой женщине, планирующей экзотический отпуск на безлюдном побережье со своим новым мужем Джорджем. К несчастью, Натали оказывается предметом вожделения еще ДВУХ мужчин, очутившихся на острове ее друга детства Лэнса и бывшего возлюбленного — Кента.
Оставшись наедине с Кентом, Натали изо всех сил старается быть верной женой, НУ а Кент, в свою очередь, прилагает все усилия, чтобы ее соблазнить. Однако на следующее утро, Натали уже не до любовных утех; героиня и ее ухажер оказываются вовлечены в бесконечную вереницу катастрофических неприятностей. Вот тут-то все и начинается.

Страна: США
Продолжительность: 01:32:14
Перевод: Профессиональный (многоголосый закадровый)
Файл
Кодек: XviD
Качество: WEB-DLRip
Видео: 720x400, 23.976 fps, XviD build 73 ~1918 kbps
Звук: 48 kHz, AC3 Dolby Digital, 2/0 (L,R) ch, ~192.00 kbps

MI

Общее
Полное имя : Head.Above.Water.1996.WEB-DLRip.avi
Формат : AVI
Формат/Информация : Audio Video Interleave
Размер файла : 1,36 Гбайт
Продолжительность : 1 ч. 32 м.
Общий поток : 2119 Кбит/сек
Программа кодирования : VirtualDubMod 1.5.10.3 | www.virtualdub-fr.org || (build 2550/release)
Библиотека кодирования : VirtualDubMod build 2550/release
Видео
Идентификатор : 0
Формат : MPEG-4 Visual
Профиль формата : Advanced Simple@L5
Параметр BVOP формата : 1
Параметр QPel формата : Нет
Параметр GMC формата : Без точки перехода
Параметр матрицы формата : Выборочная
Идентификатор кодека : XVID
Идентификатор кодека/Подсказка : XviD
Продолжительность : 1 ч. 32 м.
Битрейт : 1918 Кбит/сек
Ширина : 720 пикс.
Высота : 400 пикс.
Соотношение сторон : 16:9
Частота кадров : 23,976 кадр/сек
Цветовое пространство : YUV
Подвыборка цветности : 4:2:0
Битовая глубина : 8 бит
Тип развёртки : Прогрессивная
Метод сжатия : С потерями
Бит/(Пиксели*Кадры) : 0.278
Размер потока : 1,24 Гбайт (91%)
Библиотека кодирования : XviD 73
Аудио
Идентификатор : 1
Формат : AC-3
Формат/Информация : Audio Coding 3
Расширение режима : CM (complete main)
Идентификатор кодека : 2000
Продолжительность : 1 ч. 31 м.
Вид битрейта : Постоянный
Битрейт : 192 Кбит/сек
Канал(ы) : 2 канала(ов)
Расположение каналов : Front: L R
Частота : 48,0 КГц
Битовая глубина : 16 бит
Метод сжатия : С потерями
Размер потока : 126 Мбайт (9%)
Выравнивание : Разделение по промежуткам
Продолжительность промежутка : 42 мс. (1,00 видеокадр)
Время предзагрузки промежутка : 500 ms

Скриншоты

[Цитировать]



Показать сообщения:    

Текущее время: 10-Дек 13:50

Часовой пояс: UTC + 3


Вы не можете начинать темы
Вы не можете отвечать на сообщения
Вы не можете редактировать свои сообщения
Вы не можете удалять свои сообщения
Вы не можете голосовать в опросах
Вы не можете прикреплять файлы к сообщениям
Вы не можете скачивать файлы

!ВНИМАНИЕ!
Сайт не предоставляет электронные версии произведений, а занимается лишь коллекционированием и каталогизацией ссылок, присылаемых и публикуемых на форуме нашими читателями. Если вы являетесь правообладателем какого-либо представленного материала и не желаете, чтобы ссылка на него находилась в нашем каталоге, свяжитесь с нами, и мы незамедлительно удалим ее. Файлы для обмена на трекере предоставлены пользователями сайта, и администрация не несет ответственности за их содержание. Просьба не заливать файлы, защищенные авторскими правами, а также файлы нелегального содержания!