[ Сегодня идет свободное скачивание без начисления Download ]


Статистика раздачи
Нет
 
   
 
Top  
 
 
За кровь платят кровью / Bound by Honor (1993) DVDRip-AV Название: За кровь платят кровью
Оригинальное название: Bound by Honor
Год выхода: 1993
Страна: США
Студия: Hollywood Pictures, Touchwood Pacific Partners 1, Vato De Atole Productions
Продолжительность: 03:10:05
Жанр: боевик, триллер, драма, криминал, ...
Режиссер: Тейлор Хэкфорд
В ролях: Дэмиан Чапа (Damian Chapa), Бенджамин Братт (Benjamin Bratt), Дэни Трэхо (Danny Trejo), Билли Боб Торнтон (Billy Bob Thornton), Джесс Боррего (Jesse Borrego), Энрике Кастильо (Enrique Castillo), Виктор Риверс (Victor Rivers), Делрой Линдо (Delroy Lindo), Карлос Карраско (Carlos Carrasco), ...
Перевод: Авторский (одноголосый, закадровый) Дольский Андрей Игоревич
О фильме: Когда кровь на улицах льется как вода, и нет ничего дешевле, чем жизнь человека, надо уметь говорить на языке насилия. Иначе не выжить. Эту истину в латинском квартале Лос-Анджелеса познают с детства.
Связанные узами крови друзья Майкло, Пако и Круз выросли в этом мире поножовщины и гангстерских разборок, но выбрали разные судьбы. Майкло, пройдя тюремную школу, стал крутым бандитом. Круз подавал надежды как художник, однако увяз в наркотическом угаре. А Пако надел форму полицейского. Кажется, пути их разошлись навсегда.
Но однажды злые улицы снова сведут героев вместе — и кое-кто из бывших друзей встретятся злейшими врагами…

Кодек: x264
Качество: DVDRip-AVC
Видео: 720x464 , 2800 kbps, 23,976 fps
Аудио #1: AC-3, 2 ch, 192 kbps (Rus) - AVO Дольский Андрей Игоревич
Аудио #2: AC-3, 2 ch, 192 kbps (Eng)
Английские субтитры, которые я забыл положить в контейнер. )

Дополнительная информация

За исходник спасибо - Leo Fender

MI

x264 [info]: frame I:2263 Avg QP:14.02 size: 60232
x264 [info]: frame P:59283 Avg QP:16.48 size: 27606
x264 [info]: frame B:211903 Avg QP:18.45 size: 10473
x264 [info]: consecutive B-frames: 2.9% 2.1% 9.9% 18.0% 13.5% 31.8% 8.1% 7.2% 6.4% 0.0% 0.0% 0.0% 0.1%
Общее
Уникальный идентификатор : 181241175350960832288492759224853888948 (0x8859C7DA692E7B5996158B5405B67FB4)
Полное имя : За кровь платят кровью (Bound by Honor) 1993 DVDRip.mkv
Формат : Matroska
Версия формата : Version 2
Размер файла : 4,23 Гбайт
Продолжительность : 3 ч. 10 м.
Общий поток : 3186 Кбит/сек
Дата кодирования : UTC 2016-03-23 12:58:29
Программа кодирования : mkvmerge v4.0.0 ('The Stars were mine') сборка от Jun 6 2010 16:18:42
Библиотека кодирования : libebml v1.0.0 + libmatroska v1.0.0
Видео
Идентификатор : 1
Формат : AVC
Формат/Информация : Advanced Video Codec
Профиль формата : High@L4.1
Параметр CABAC формата : Да
Параметр ReFrames формата : 12 кадров
Идентификатор кодека : V_MPEG4/ISO/AVC
Продолжительность : 3 ч. 10 м.
Битрейт : 2800 Кбит/сек
Ширина : 720 пикселей
Высота : 464 пикселя
Соотношение сторон : 16:10
Режим частоты кадров : Постоянный
Частота кадров : 23,976 кадра/сек
Цветовое пространство : YUV
Субдискретизация насыщенности : 4:2:0
Битовая глубина : 8 бит
Тип развёртки : Прогрессивная
Бит/(Пиксели*Кадры) : 0.350
Размер потока : 3,64 Гбайт (86%)
Библиотека кодирования : x264 core 146 r2538 121396c
Настройки программы : cabac=1 / ref=12 / deblock=1:-3:-3 / analyse=0x3:0x133 / me=umh / subme=11 / psy=1 / psy_rd=1.00:0.00 / mixed_ref=1 / me_range=32 / chroma_me=1 / trellis=2 / 8x8dct=1 / cqm=0 / deadzone=21,11 / fast_pskip=0 / chroma_qp_offset=-2 / threads=12 / lookahead_threads=2 / sliced_threads=0 / nr=0 / decimate=0 / interlaced=0 / bluray_compat=0 / constrained_intra=0 / bframes=12 / b_pyramid=2 / b_adapt=2 / b_bias=0 / direct=3 / weightb=1 / open_gop=0 / weightp=2 / keyint=240 / keyint_min=23 / scenecut=40 / intra_refresh=0 / rc=2pass / mbtree=0 / bitrate=2800 / ratetol=1.0 / qcomp=0.60 / qpmin=0 / qpmax=69 / qpstep=4 / cplxblur=20.0 / qblur=0.5 / ip_ratio=1.40 / pb_ratio=1.30 / aq=1:0.80
Язык : English
Default : Нет
Forced : Нет
Аудио #1
Идентификатор : 2
Формат : AC-3
Формат/Информация : Audio Coding 3
Расширение режима : CM (complete main)
Параметр Endianness формата : Big
Идентификатор кодека : A_AC3
Продолжительность : 3 ч. 10 м.
Вид битрейта : Постоянный
Битрейт : 192 Кбит/сек
Каналы : 2 канала
Расположение каналов : Front: L R
Частота : 48,0 КГц
Метод сжатия : С потерями
Размер потока : 261 Мбайт (6%)
Заголовок : AVO Дольский Андрей Игоревич
Язык : Russian
Default : Нет
Forced : Нет
Аудио #2
Идентификатор : 3
Формат : AC-3
Формат/Информация : Audio Coding 3
Профиль формата : Dolby Digital
Расширение режима : CM (complete main)
Параметр Endianness формата : Big
Идентификатор кодека : A_AC3
Продолжительность : 3 ч. 10 м.
Вид битрейта : Постоянный
Битрейт : 192 Кбит/сек
Каналы : 2 канала
Расположение каналов : Front: L R
Частота : 48,0 КГц
Метод сжатия : С потерями
Размер потока : 261 Мбайт (6%)
Язык : English
Default : Нет
Forced : Нет

Скриншоты


[Цитировать]



Показать сообщения:    

Текущее время: 09-Дек 12:47

Часовой пояс: UTC + 3


Вы не можете начинать темы
Вы не можете отвечать на сообщения
Вы не можете редактировать свои сообщения
Вы не можете удалять свои сообщения
Вы не можете голосовать в опросах
Вы не можете прикреплять файлы к сообщениям
Вы не можете скачивать файлы

!ВНИМАНИЕ!
Сайт не предоставляет электронные версии произведений, а занимается лишь коллекционированием и каталогизацией ссылок, присылаемых и публикуемых на форуме нашими читателями. Если вы являетесь правообладателем какого-либо представленного материала и не желаете, чтобы ссылка на него находилась в нашем каталоге, свяжитесь с нами, и мы незамедлительно удалим ее. Файлы для обмена на трекере предоставлены пользователями сайта, и администрация не несет ответственности за их содержание. Просьба не заливать файлы, защищенные авторскими правами, а также файлы нелегального содержания!