[ Сегодня идет свободное скачивание без начисления Download ]


Статистика раздачи
Нет
 
   
 
Top  
 
 
Маша и Медведь. Машкины страшилки [01x01-11] (2014-2016) Информация о фильме
Название: Маша и Медведь. Машкины страшилки
Год выхода: 2014-2016
Жанр: Мультсериал, детский, приключения, комедия
Страна: Россия
Студия: Студия "Анимаккорд"
Продолжительность: 11 x ~ 00:05:41
Перевод: не требуется
Режиссер: Олег Ужинов, Денис Червяцов, Олег Кузовков
В ролях: Алина Кукушкина
О фильме:
Новый проект студии "Анимаккорд" - "Машкины страшилки"... Все дети боятся темноты. Маша раньше тоже так её боялась, что приходилось ей по ночам с фонариком сидеть! Но однажды Маша придумала сказочку про маленького лесного жучка, который тоже боялся темноты... Трепещите! Маша взялась за новый жанр - теперь она рассказывает страшилки!

Содержание

01. Душераздирающая повесть о тёмном лесе и маленьком жучке.
02. Жутко-страшное предание о том, как один мальчик боялся умываться.
03. Чудовищная быль о том, как некоторые боятся чудовищ
04. Тревожный сказ о потерявшемся котёнке
05. Кошмарное поверие о новогодних стишках
06. Мрачная притча о суеверной девочке
07. Угрюмый завет о сопливом мальчике
08. О Девочке, которая боялась зверушек
09. Ужасающая история про бабушку и внучка
10. Полный отчаяния миф об исторической ошибке
11. Панически невыносимая легенда о букашках
Файл
Формат: MKV
Качество: WEB-DL 1080p
Видео: MPEG-4 AVC, [email protected]/* */, 1920x1080 (16:9), ~ 4 908 kbps, 25,000 fps
Звук: 48.0 KHz, AC3 2.0 192 kbps
Субтитры: нет

MI

09. Ужасающая история про бабушку и внучка. WEB-DL.1080p.x264.-merci-.mkv
Format : Matroska
Format version : Version 2
File size : 211 MiB
Duration : 5mn 40s
Overall bit rate : 5 203 Kbps
Movie name : Машкины Страшилки / 2014-2015 / Россия. "Анимаккорд"
Encoded date : UTC 2016-01-30 16:14:33
Writing application : mkvmerge v5.8.0 ('No Sleep / Pillow') built on Sep 2 2012 15:37:04
Writing library : libebml v1.2.3 + libmatroska v1.3.0
Video
ID : 1
Format : AVC
Format/Info : Advanced Video Codec
Format profile : High@L4
Format settings, CABAC : Yes
Format settings, ReFrames : 2 frames
Codec ID : V_MPEG4/ISO/AVC
Duration : 5mn 40s
Bit rate : 4 908 Kbps
Width : 1 920 pixels
Height : 1 080 pixels
Display aspect ratio : 16:9
Frame rate mode : Constant
Frame rate : 25.000 fps
Color space : YUV
Chroma subsampling : 4:2:0
Bit depth : 8 bits
Scan type : Progressive
Bits/(Pixel*Frame) : 0.095
Stream size : 199 MiB (94%)
Title : 09. Ужасающая история про бабушку и внучка. WEB-DL.1080p.x264.
Language : Russian
Default : Yes
Forced : No
Color range : Limited
Color primaries : BT.709
Transfer characteristics : BT.709
Matrix coefficients : BT.709
Audio
ID : 2
Format : AC-3
Format/Info : Audio Coding 3
Mode extension : CM (complete main)
Format settings, Endianness : Big
Codec ID : A_AC3
Duration : 5mn 40s
Bit rate mode : Constant
Bit rate : 192 Kbps
Channel(s) : 2 channels
Channel positions : Front: L R
Sampling rate : 48.0 KHz
Compression mode : Lossy
Stream size : 7.79 MiB (4%)
Title : rus
Language : Russian
Default : Yes
Forced : No

Скриншоты

Релиз от: -merci-

[Цитировать]



Показать сообщения:    

Текущее время: 10-Дек 21:34

Часовой пояс: UTC + 3


Вы не можете начинать темы
Вы не можете отвечать на сообщения
Вы не можете редактировать свои сообщения
Вы не можете удалять свои сообщения
Вы не можете голосовать в опросах
Вы не можете прикреплять файлы к сообщениям
Вы не можете скачивать файлы

!ВНИМАНИЕ!
Сайт не предоставляет электронные версии произведений, а занимается лишь коллекционированием и каталогизацией ссылок, присылаемых и публикуемых на форуме нашими читателями. Если вы являетесь правообладателем какого-либо представленного материала и не желаете, чтобы ссылка на него находилась в нашем каталоге, свяжитесь с нами, и мы незамедлительно удалим ее. Файлы для обмена на трекере предоставлены пользователями сайта, и администрация не несет ответственности за их содержание. Просьба не заливать файлы, защищенные авторскими правами, а также файлы нелегального содержания!