[ Today is free to download without increasing Download ]

DL-List and Torrent activity
Маша и Медведь. Машкины страшилки [01x01-11] (2014-2016) Информация о фильме
Название: Маша и Медведь. Машкины страшилки
Год выхода: 2014-2016
Жанр: Мультсериал, детский, приключения, комедия
Страна: Россия
Студия: Студия "Анимаккорд"
Продолжительность: 11 x ~ 00:05:41
Перевод: не требуется
Режиссер: Олег Ужинов, Денис Червяцов, Олег Кузовков
В ролях: Алина Кукушкина
О фильме:
Новый проект студии "Анимаккорд" - "Машкины страшилки"... Все дети боятся темноты. Маша раньше тоже так её боялась, что приходилось ей по ночам с фонариком сидеть! Но однажды Маша придумала сказочку про маленького лесного жучка, который тоже боялся темноты... Трепещите! Маша взялась за новый жанр - теперь она рассказывает страшилки!


01. Душераздирающая повесть о тёмном лесе и маленьком жучке.
02. Жутко-страшное предание о том, как один мальчик боялся умываться.
03. Чудовищная быль о том, как некоторые боятся чудовищ
04. Тревожный сказ о потерявшемся котёнке
05. Кошмарное поверие о новогодних стишках
06. Мрачная притча о суеверной девочке
07. Угрюмый завет о сопливом мальчике
08. О Девочке, которая боялась зверушек
09. Ужасающая история про бабушку и внучка
10. Полный отчаяния миф об исторической ошибке
11. Панически невыносимая легенда о букашках
Формат: MKV
Качество: WEB-DL 1080p
Видео: MPEG-4 AVC, [email protected]/* */, 1920x1080 (16:9), ~ 4 908 kbps, 25,000 fps
Звук: 48.0 KHz, AC3 2.0 192 kbps
Субтитры: нет


09. Ужасающая история про бабушку и внучка. WEB-DL.1080p.x264.-merci-.mkv
Format : Matroska
Format version : Version 2
File size : 211 MiB
Duration : 5mn 40s
Overall bit rate : 5 203 Kbps
Movie name : Машкины Страшилки / 2014-2015 / Россия. "Анимаккорд"
Encoded date : UTC 2016-01-30 16:14:33
Writing application : mkvmerge v5.8.0 ('No Sleep / Pillow') built on Sep 2 2012 15:37:04
Writing library : libebml v1.2.3 + libmatroska v1.3.0
ID : 1
Format : AVC
Format/Info : Advanced Video Codec
Format profile : High@L4
Format settings, CABAC : Yes
Format settings, ReFrames : 2 frames
Duration : 5mn 40s
Bit rate : 4 908 Kbps
Width : 1 920 pixels
Height : 1 080 pixels
Display aspect ratio : 16:9
Frame rate mode : Constant
Frame rate : 25.000 fps
Color space : YUV
Chroma subsampling : 4:2:0
Bit depth : 8 bits
Scan type : Progressive
Bits/(Pixel*Frame) : 0.095
Stream size : 199 MiB (94%)
Title : 09. Ужасающая история про бабушку и внучка. WEB-DL.1080p.x264.
Language : Russian
Default : Yes
Forced : No
Color range : Limited
Color primaries : BT.709
Transfer characteristics : BT.709
Matrix coefficients : BT.709
ID : 2
Format : AC-3
Format/Info : Audio Coding 3
Mode extension : CM (complete main)
Format settings, Endianness : Big
Codec ID : A_AC3
Duration : 5mn 40s
Bit rate mode : Constant
Bit rate : 192 Kbps
Channel(s) : 2 channels
Channel positions : Front: L R
Sampling rate : 48.0 KHz
Compression mode : Lossy
Stream size : 7.79 MiB (4%)
Title : rus
Language : Russian
Default : Yes
Forced : No


Релиз от: -merci-


Display posts:    

Current time is: 21-Oct 17:50

All times are UTC + 3

You cannot post new topics in this forum
You cannot reply to topics in this forum
You cannot edit your posts in this forum
You cannot delete your posts in this forum
You cannot vote in polls in this forum
You cannot attach files in this forum
You cannot download files in this forum

The site does not give electronic versions of products, and is engaged only in a collecting and cataloguing of the references sent and published at a forum by our readers. If you are the legal owner of any submitted material and do not wish that the reference to it was in our catalogue, contact us and we shall immediately remove her. Files for an exchange on tracker are given by users of a site, and the administration does not bear the responsibility for their maintenance. The request to not fill in the files protected by copyrights, and also files of the illegal maintenance!