[ Сегодня идет свободное скачивание без начисления Download ]


Статистика раздачи
Скачал: [ 15 ]
 
   
 
Top  
 
 
PHP. Уровень 2. Профессиональное программирование (2016) PCRec Автор (режиссер): Альберт Степанцев
Жанр: Вэб-программирование, PHP
Описание:
Второй курс для тех, кто хочет сделать программирование на PHP своей профессией и изменить свою жизнь к лучшему. В этом курсе - только самое нужное. Мало теории, почти ничего - для новичков, зато очень много самых современных практик от лучших практиков!
Курс посвящен последовательному построению веб-приложения на основе архитектурной модели MVC с нуля и до полноценного работающего сайта. Попутно уделяется время изучению сложных понятий ООП в современном PHP.
В курс также входит обзор современных фреймворков для веб-программистов.
Продолжительность: 12:44:44
Качество видео: PCRec
Видео: AVC/H.264, 1280x684, ~371 - 478 Kbps
Аудио: AAC, 2 ch, 192 Kbps, VBR

Программа курса:

1. Модели данных и ООП
2. Продолжение разговора о моделях
3. Изоляция уровня представления
4. Контроллеры и фронт-контроллер
5. Исключения
6. Современные стандарты PHP
7. "Новые" возможности PHP
8. Обзор современных фреймворков

Mediainfo:

Код:
Общее
Полное имя                               : C:\[ProfIT] PHP. Уровень 2. Профессиональное программирование - 2016\Урок 7.mp4
Формат                                   : MPEG-4
Профиль формата                          : Base Media / Version 2
Идентификатор кодека                     : mp42 (isom/mp42)
Размер файла                             : 386 Мбайт
Продолжительность                        : 1 ч. 35 м.
Режим общего битрейта                    : Переменный
Общий поток                              : 565 Кбит/сек
Дата кодирования                         : UTC 2016-03-04 19:08:32
Дата пометки                             : UTC 2016-03-04 19:08:32
gsst                                     : 0
gstd                                     : 5722255
Видео
Идентификатор                            : 1
Формат                                   : AVC
Формат/Информация                        : Advanced Video Codec
Профиль формата                          : High@L3.1
Параметр CABAC формата                   : Да
Параметр ReFrames формата                : 1 кадр
Параметр GOP формата                     : M=1, N=60
Идентификатор кодека                     : avc1
Идентификатор кодека/Информация          : Advanced Video Coding
Продолжительность                        : 1 ч. 35 м.
Битрейт                                  : 371 Кбит/сек
Максимальный битрейт                     : 4290 Кбит/сек
Ширина                                   : 1280 пикселей
Высота                                   : 684 пикселя
Соотношение сторон                       : 1,85:1
Режим частоты кадров                     : Постоянный
Частота кадров                           : 15,000 кадров/сек
Цветовое пространство                    : YUV
Субдискретизация насыщенности            : 4:2:0
Битовая глубина                          : 8 бит
Тип развёртки                            : Прогрессивная
Бит/(Пиксели*Кадры)                      : 0.028
Размер потока                            : 253 Мбайт (66%)
Дата пометки                             : UTC 2016-03-04 19:09:22
Аудио
Идентификатор                            : 2
Формат                                   : AAC
Формат/Информация                        : Advanced Audio Codec
Профиль формата                          : LC
Идентификатор кодека                     : 40
Продолжительность                        : 1 ч. 35 м.
Вид битрейта                             : Переменный
Битрейт                                  : 192 Кбит/сек
Максимальный битрейт                     : 201 Кбит/сек
Каналы                                   : 2 канала
Расположение каналов                     : Front: L R
Частота                                  : 44,1 КГц
Частота кадров                           : 43,066 кадра/сек (1024 spf)
Метод сжатия                             : С потерями
Размер потока                            : 131 Мбайт (34%)
Заголовок                                : IsoMedia File Produced by Google, 5-11-2011
Язык                                     : English
Дата кодирования                         : UTC 2016-03-04 19:08:59
Дата пометки                             : UTC 2016-03-04 19:09:22
Код:
Общее
Полное имя                               : C:\[ProfIT] PHP. Уровень 2. Профессиональное программирование - 2016\Урок 3.mp4
Формат                                   : MPEG-4
Профиль формата                          : Base Media / Version 2
Идентификатор кодека                     : mp42 (isom/mp42)
Размер файла                             : 417 Мбайт
Продолжительность                        : 1 ч. 26 м.
Режим общего битрейта                    : Переменный
Общий поток                              : 672 Кбит/сек
Дата кодирования                         : UTC 2016-02-05 19:14:05
Дата пометки                             : UTC 2016-02-05 19:14:05
gsst                                     : 0
gstd                                     : 5211811
Видео
Идентификатор                            : 1
Формат                                   : AVC
Формат/Информация                        : Advanced Video Codec
Профиль формата                          : High@L3.1
Параметр CABAC формата                   : Да
Параметр ReFrames формата                : 1 кадр
Параметр GOP формата                     : M=1, N=60
Идентификатор кодека                     : avc1
Идентификатор кодека/Информация          : Advanced Video Coding
Продолжительность                        : 1 ч. 26 м.
Битрейт                                  : 478 Кбит/сек
Максимальный битрейт                     : 3901 Кбит/сек
Ширина                                   : 1280 пикселей
Высота                                   : 684 пикселя
Соотношение сторон                       : 1,85:1
Режим частоты кадров                     : Постоянный
Частота кадров                           : 15,000 кадров/сек
Цветовое пространство                    : YUV
Субдискретизация насыщенности            : 4:2:0
Битовая глубина                          : 8 бит
Тип развёртки                            : Прогрессивная
Бит/(Пиксели*Кадры)                      : 0.036
Размер потока                            : 297 Мбайт (71%)
Дата пометки                             : UTC 2016-02-05 19:14:39
Аудио
Идентификатор                            : 2
Формат                                   : AAC
Формат/Информация                        : Advanced Audio Codec
Профиль формата                          : LC
Идентификатор кодека                     : 40
Продолжительность                        : 1 ч. 26 м.
Вид битрейта                             : Переменный
Битрейт                                  : 192 Кбит/сек
Максимальный битрейт                     : 201 Кбит/сек
Каналы                                   : 2 канала
Расположение каналов                     : Front: L R
Частота                                  : 44,1 КГц
Частота кадров                           : 43,066 кадра/сек (1024 spf)
Метод сжатия                             : С потерями
Размер потока                            : 119 Мбайт (29%)
Заголовок                                : IsoMedia File Produced by Google, 5-11-2011
Язык                                     : English
Дата кодирования                         : UTC 2016-02-05 19:14:24
Дата пометки                             : UTC 2016-02-05 19:14:39

Скриншоты

PHP. Уровень 1 Основы веб-разработки (2015) 720p-LQ

[Цитировать]



Показать сообщения:    

Текущее время: 11-Дек 01:24

Часовой пояс: UTC + 3


Вы не можете начинать темы
Вы не можете отвечать на сообщения
Вы не можете редактировать свои сообщения
Вы не можете удалять свои сообщения
Вы не можете голосовать в опросах
Вы не можете прикреплять файлы к сообщениям
Вы не можете скачивать файлы

!ВНИМАНИЕ!
Сайт не предоставляет электронные версии произведений, а занимается лишь коллекционированием и каталогизацией ссылок, присылаемых и публикуемых на форуме нашими читателями. Если вы являетесь правообладателем какого-либо представленного материала и не желаете, чтобы ссылка на него находилась в нашем каталоге, свяжитесь с нами, и мы незамедлительно удалим ее. Файлы для обмена на трекере предоставлены пользователями сайта, и администрация не несет ответственности за их содержание. Просьба не заливать файлы, защищенные авторскими правами, а также файлы нелегального содержания!