[ Сегодня идет свободное скачивание без начисления Download ]


Статистика раздачи
Скачал: [ 7 ]
 
   
 
Top  
 
 
Geekbrains | PHP. Уровень 1 Основы веб-разработки (2015) 720p-LQ Автор (режиссер): Степанцев
Жанр: Программирование, PHP
Продолжительность: 15:00:00
Качество видео: PCRec
Видеокодек: AVC
Битрейт видео: ~68,3 kb/s 15,00 FPS
Размер кадра: 1280 x 720
Аудиокодек: AAC 2.0
Битрейт аудио: 64,0 kb/s (CBR), 2 Ch, 44100 Hz
Описание:
Минимальный уровень подготовки ученика может быть практически нулевым. Знаний PHP не требуется, обучение начинается с самых азов. Тот, кто уже знаком с основами PHP, сможет сконцентрироваться на советах авторов по грамотному оформлению скриптов. Что позволит значительно улучшить культуру написания кода и проектирования веб-приложений.

Чему научат:

Устанавливать сервер в связке Apache, PHP и MySQL
Проектировать бизнес-логику своих веб-приложений
Использовать парадигму функционального программирования
Получать и обрабатывать данные пользователя через HTML формы
Реализовывать авторизацию пользователей с использованием сессий и куков
Работать с файлами на сервере
Проектировать фотогалерею и работать с изображениями
Взаимодействовать и администрировать Базы Данных MySQL
Применять шаблон проектирования MVC
Создавать быстрые и безопасные веб-приложения
Грамотно применять полученные знания на практике

Mediainfo:

Код:
Общее
Полное имя                               : C:\[Geekbrains] PHP. Уровень 1 Основы веб-разработки
Формат                                   : MPEG-4
Профиль формата                          : Base Media
Идентификатор кодека                     : isom
Размер файла                             : 107 Мбайт
Продолжительность                        : 1 ч. 47 м.
Общий поток                              : 139 Кбит/сек
Исполнитель                              : "Recording #836047"
Программа кодирования                    : Lavf54.29.104
Видео
Идентификатор                            : 1
Формат                                   : AVC
Формат/Информация                        : Advanced Video Codec
Профиль формата                          : Main@L3.1
Параметр CABAC формата                   : Да
Параметр ReFrames формата                : 4 кадра
Идентификатор кодека                     : avc1
Идентификатор кодека/Информация          : Advanced Video Coding
Продолжительность                        : 1 ч. 47 м.
Битрейт                                  : 68,3 Кбит/сек
Ширина                                   : 1280 пикселей
Высота                                   : 720 пикселей
Соотношение сторон                       : 16:9
Режим частоты кадров                     : Постоянный
Частота кадров                           : 15,000 кадров/сек
Цветовое пространство                    : YUV
Субдискретизация насыщенности            : 4:2:0
Битовая глубина                          : 8 бит
Тип развёртки                            : Прогрессивная
Бит/(Пиксели*Кадры)                      : 0.005
Размер потока                            : 52,7 Мбайт (49%)
Библиотека кодирования                   : x264 core 132
Настройки программы                      : cabac=1 / ref=1 / deblock=1:0:0 / analyse=0x1:0x111 / me=hex / subme=2 / psy=1 / psy_rd=1.00:0.00 / mixed_ref=0 / me_range=16 / chroma_me=1 / trellis=0 / 8x8dct=0 / cqm=0 / deadzone=21,11 / fast_pskip=1 / chroma_qp_offset=0 / threads=4 / lookahead_threads=1 / sliced_threads=0 / nr=0 / decimate=1 / interlaced=0 / bluray_compat=0 / constrained_intra=0 / bframes=3 / b_pyramid=2 / b_adapt=1 / b_bias=0 / direct=1 / weightb=1 / open_gop=0 / weightp=1 / keyint=250 / keyint_min=15 / scenecut=40 / intra_refresh=0 / rc_lookahead=10 / rc=crf / mbtree=1 / crf=26.0 / qcomp=0.60 / qpmin=0 / qpmax=69 / qpstep=4 / ip_ratio=1.40 / aq=1:1.00
Аудио
Идентификатор                            : 2
Формат                                   : AAC
Формат/Информация                        : Advanced Audio Codec
Профиль формата                          : LC
Идентификатор кодека                     : 40
Продолжительность                        : 1 ч. 47 м.
Вид битрейта                             : Постоянный
Битрейт                                  : 64,0 Кбит/сек
Каналы                                   : 2 канала
Расположение каналов                     : Front: L R
Частота                                  : 44,1 КГц
Метод сжатия                             : С потерями
Размер потока                            : 49,4 Мбайт (46%)
Скриншоты: PHP. Уровень 2. Профессиональное программирование (2016) PCRec

[Цитировать]



Показать сообщения:    

Текущее время: 24-Июн 04:33

Часовой пояс: UTC + 6


Вы не можете начинать темы
Вы не можете отвечать на сообщения
Вы не можете редактировать свои сообщения
Вы не можете удалять свои сообщения
Вы не можете голосовать в опросах
Вы не можете прикреплять файлы к сообщениям
Вы не можете скачивать файлы

!ВНИМАНИЕ!
Сайт не предоставляет электронные версии произведений, а занимается лишь коллекционированием и каталогизацией ссылок, присылаемых и публикуемых на форуме нашими читателями. Если вы являетесь правообладателем какого-либо представленного материала и не желаете, чтобы ссылка на него находилась в нашем каталоге, свяжитесь с нами, и мы незамедлительно удалим ее. Файлы для обмена на трекере предоставлены пользователями сайта, и администрация не несет ответственности за их содержание. Просьба не заливать файлы, защищенные авторскими правами, а также файлы нелегального содержания!