[ Сегодня идет свободное скачивание без начисления Download ]


Статистика раздачи
Нет
 
   
 
Top  
 
 
Дэдпул / Deadpool «Стань свидетелем, как он кончит»
Год выпуска: 2016
Страна: США, Канада
Производство: 20th Century Fox Film Corporation
Жанр: фантастика, боевик, комедия, приключения
Режиссёр: Тим Миллер
В ролях: Райан Рейнольдс, Морена Баккарин, Эд Скрейн, ТиДжей Миллер, Джина Карано, Брианна Хилдебранд, Стефан Капичич, Лесли Уггэмс, Джед Риис, Каран Сони, Майкл Беняер, Стайл Дэйн, Кайл Кэсси, Тэйлор Хиксон, Айзи, Наика Туссэн, Рендал Ридер, Айзек С. Синглтон мл., Джастин Шиппелт, Донна Ямамото
Перевод: Профессиональный (полное дублирование) [Чистый звук]
Субтитры: нет
Описание: У бывшего спецназовца Уэйда Уилсона было все, о чем можно только мечтать: перспективная высокооплачиваемая работа, отдельная жилплощадь и неземной красоты девушка, работающая в местном стриптиз-клубе. Но однажды случается непоправимое - у молодого человека диагностируют рак. В результате несчастного случая при прохождении курса вакуумной химиотерапии его внешность приобретает очертания кошмаров Фредди Крюгера, а скорость генерирования шуток черного юмора взлетает в стратосферу. Сможет ли его девушка пережить крутую смену имиджа любимого человека? Сможет ли он сам удержать свою нестабильную психику на плаву и не скатиться по наклонной?

Премьера (мир): 21 января 2016, ...
Премьера (РФ): 11 февраля 2016, «Двадцатый Век Фокс СНГ»
Качество: WEBRip
Продолжительность: 01:47:47
Формат: AVI
Видео кодек: XviD
Аудио кодек: MPEG Audio Layer 3
Видео: 640x272 (2,35:1), 25,000 fps, XviD ~820 Кбит/сек, 0.188 bit/pixel
Аудио 1: 48 kHz, MPEG Audio Layer 3, 2 ch, ~128 kbps [Rus]

Отчет MI

Общее
Полное имя : E:\Торренты новые\Dedpul.2016.WEBRip.740.D..avi
Формат : AVI
Формат/Информация : Audio Video Interleave
Размер файла : 739 Мбайт
Продолжительность : 1 ч. 47 м.
Общий поток : 958 Кбит/сек
Программа кодирования : VirtualDubMod 1.5.10.3 (build 2550/release)
Библиотека кодирования : VirtualDubMod build 2550/release
Видео
Идентификатор : 0
Формат : MPEG-4 Visual
Профиль формата : Advanced Simple@L5
Параметр BVOP формата : 1
Параметр QPel формата : Нет
Параметр GMC формата : Без точки перехода
Параметр матрицы формата : Default (H.263)
Идентификатор кодека : XVID
Идентификатор кодека/Подсказка : XviD
Продолжительность : 1 ч. 47 м.
Битрейт : 820 Кбит/сек
Ширина : 640 пикселей
Высота : 272 пикселя
Соотношение сторон : 2,35:1
Частота кадров : 25,000 кадров/сек
Цветовое пространство : YUV
Субдискретизация насыщенности : 4:2:0
Битовая глубина : 8 бит
Тип развёртки : Прогрессивная
Метод сжатия : С потерями
Бит/(Пиксели*Кадры) : 0.188
Размер потока : 632 Мбайт (86%)
Библиотека кодирования : XviD 73
Аудио
Идентификатор : 1
Формат : MPEG Audio
Версия формата : Version 1
Профиль формата : Layer 3
Идентификатор кодека : 55
Идентификатор кодека/Подсказка : MP3
Продолжительность : 1 ч. 47 м.
Вид битрейта : Постоянный
Битрейт : 128 Кбит/сек
Каналы : 2 канала
Частота : 48,0 КГц
Метод сжатия : С потерями
Размер потока : 98,7 Мбайт (13%)
Выравнивание : Соединение по промежуткам
Продолжительность промежутка : 40 мс. (1,00 видеокадр)
Время предзагрузки промежутка : 504 мс.
Библиотека кодирования : LAME3.99r
Настройки программы : -m s -V 4 -q 2 -lowpass 17 -b 128

Скриншоты

[Цитировать]



Показать сообщения:    

Текущее время: 08-Дек 17:08

Часовой пояс: UTC + 3


Вы не можете начинать темы
Вы не можете отвечать на сообщения
Вы не можете редактировать свои сообщения
Вы не можете удалять свои сообщения
Вы не можете голосовать в опросах
Вы не можете прикреплять файлы к сообщениям
Вы не можете скачивать файлы

!ВНИМАНИЕ!
Сайт не предоставляет электронные версии произведений, а занимается лишь коллекционированием и каталогизацией ссылок, присылаемых и публикуемых на форуме нашими читателями. Если вы являетесь правообладателем какого-либо представленного материала и не желаете, чтобы ссылка на него находилась в нашем каталоге, свяжитесь с нами, и мы незамедлительно удалим ее. Файлы для обмена на трекере предоставлены пользователями сайта, и администрация не несет ответственности за их содержание. Просьба не заливать файлы, защищенные авторскими правами, а также файлы нелегального содержания!