[ Сегодня идет свободное скачивание без начисления Download ]


Статистика раздачи
Нет
 
   
 
Top  
 
 
Темный рыцарь: Возрождение легенды : Дилогия / Batman: The Dark Knight Returns : Dilogy (2012-2013) BDRip | 60 fps

Темный рыцарь: Возрождение легенды. Часть 1


Название: Темный рыцарь: Возрождение легенды. Часть 2
Оригинальное название: Batman: The Dark Knight Returns, Part 2
Год выпуска: 2012
Страна: США
Жанр: мультфильм, боевик, криминал
Продолжительность: 01:16:22
Перевод: Дубляж, Оригинальный
Субтитры: русские (Полные), английские (Полные)
Режиссер: Джей Олива
В ролях: Питер Уэллер (Batman / Bruce Wayne, озвучка), Ариэль Уинтер (Robin / Carrie Kelley, озвучка), Дэвид Селби (Commissioner Gordon, озвучка), Уэйд Уильямс (Harvey Dent, озвучка), Карлос Аласраки (Hernando, озвучка), Ди Брэдли Бейкер (Don, озвучка), Пэйджет Брюстер (Lana Lang, озвучка), Мария Кэнелс-Баррера (Ellen Yindel, озвучка), Кэти Кавадини (Joanie, озвучка), Таунсенд Коулмэн (Morrie, озвучка), Грэй Гриффин (Anchor Carla, озвучка), Ричард Дойл (The Mayor, озвучка)
Описание:
Прошло 10 лет с тех пор как стареющий Бэтмен «ушел в отставку». Готэм в упадке и беззаконии. Теперь, когда городу так нужен его герой, Бэтмен наконец возвращается. В компании Кэрри Келли - девушки-супергероя - Бэтмен решает очистить улицы от банд мутантов, которые наводнили Готэм.
Рейтинг:

MPAA: PG-13 - Детям до 13 лет просмотр не желателен
Качество: BDRip 720p 60fps
Формат: MKV
Видео: AVC, 1280x720 (16:9), 8798 kbps, 60 fps, 0,159 bpp
Аудио 1: русский / AC3 / 2.0 / 48 kHz / 192 kbps / 16 bit
Аудио 2: английский / AC3 / 5.1 / 48 kHz / 640 kbps / 16 bit |Оригинал (Отдельно в папке)|
Навигация по главам: есть

ОтчетМедиаИнфо

General
Unique ID : 247376374414796541384493388319727528798 (0xBA1AF4EA6B1A86AFB61B7F6BE7CFAB5E)
Format : Matroska
Format version : Version 4 / Version 2
File size : 4.89 GiB
Duration : 1h 16mn
Overall bit rate mode : Variable
Overall bit rate : 9 173 Kbps
Movie name : Tiberiumsun69
Encoded date : UTC 2016-03-26 05:09:06
Writing application : mkvmerge v8.3.0 ('Over the Horizon') 64bit
Writing library : libebml v1.3.1 + libmatroska v1.4.2
DURATION : 01:16:22.000000000
NUMBER_OF_FRAMES : 274920
NUMBER_OF_BYTES : 5140966924
_STATISTICS_WRITING_APP : mkvmerge v8.3.0 ('Over the Horizon') 64bit
_STATISTICS_WRITING_DATE_UTC : 2016-03-26 05:09:06
_STATISTICS_TAGS : BPS DURATION NUMBER_OF_FRAMES NUMBER_OF_BYTES
Attachment : Yes
Video
ID : 1
Format : AVC
Format/Info : Advanced Video Codec
Format profile : High@L4.1
Format settings, CABAC : Yes
Format settings, ReFrames : 3 frames
Format settings, GOP : M=3, N=60
Codec ID : V_MPEG4/ISO/AVC
Duration : 1h 16mn
Bit rate mode : Variable
Bit rate : 8 798 Kbps
Maximum bit rate : 10 000 Kbps
Width : 1 280 pixels
Height : 720 pixels
Display aspect ratio : 16:9
Frame rate : 60.000 fps
Standard : NTSC
Color space : YUV
Chroma subsampling : 4:2:0
Bit depth : 8 bits
Scan type : Progressive
Bits/(Pixel*Frame) : 0.159
Stream size : 4.69 GiB (96%)
Title : Tiberiumsun69
Language : English
Default : Yes
Forced : No
Color primaries : BT.709-5, BT.1361, IEC 61966-2-4, SMPTE RP177
Transfer characteristics : BT.709-5, BT.1361
Matrix coefficients : BT.709-5, BT.1361, IEC 61966-2-4 709, SMPTE RP177
Audio
ID : 2
Format : AC-3
Format/Info : Audio Coding 3
Mode extension : CM (complete main)
Codec ID : A_AC3
Duration : 1h 16mn
Bit rate mode : Constant
Bit rate : 192 Kbps
Channel(s) : 2 channels
Channel positions : Front: L R
Sampling rate : 48.0 KHz
Bit depth : 16 bits
Compression mode : Lossy
Stream size : 105 MiB (2%)
Title : Дубляж
Language : Russian
Default : Yes
Forced : No
Text #1
ID : 3
Format : UTF-8
Codec ID : S_TEXT/UTF8
Codec ID/Info : UTF-8 Plain Text
Title : Полные
Language : Russian
Default : No
Forced : No
Text #2
ID : 4
Format : UTF-8
Codec ID : S_TEXT/UTF8
Codec ID/Info : UTF-8 Plain Text
Title : Полные
Language : English
Default : No
Forced : No
Menu
00:00:00.000 : en:00:00:00.000
00:10:16.533 : en:00:10:16.533
00:18:49.295 : en:00:18:49.295
00:29:03.700 : en:00:29:03.700
00:39:39.919 : en:00:39:39.919
00:50:44.208 : en:00:50:44.208
00:59:19.389 : en:00:59:19.389
01:10:53.708 : en:01:10:53.708
01:12:59.792 : en:01:12:59.792

Темный рыцарь: Возрождение легенды. Часть 2


Название: Темный рыцарь: Возрождение легенды. Часть 2
Оригинальное название: Batman: The Dark Knight Returns, Part 2
Год выпуска: 2013
Страна: США
Жанр: мультфильм, боевик, триллер, криминал
Продолжительность: 01:15:49
Перевод: Дубляж, Оригинальный
Субтитры: русские (Полные), английские (Полные)
Режиссер: Джей Олива
В ролях: Питер Уэллер (Batman / Bruce Wayne, озвучка), Ариэль Уинтер (Robin / Carrie Kelley, озвучка), Майкл Эмерсон (Joker, озвучка), Дэвид Селби (Commissioner Gordon, озвучка), Марк Вэлли (Superman / Clark Kent, озвучка), Карлос Аласраки (Congressman Noches, озвучка), Ди Брэдли Бейкер (Don, озвучка), Пэйджет Брюстер (Lana Lang, озвучка), Мария Кэнелс-Баррера (Ellen Yindel, озвучка), Таунсенд Коулмэн (Morrie / Abner, озвучка), Грэй Гриффин (Anchor Carla / Sarah Essen-Gordon, озвучка), Робин Аткин Даунс (Oliver Queen, озвучка)
Описание:
Прошло 10 лет с тех пор как стареющий Бэтмен «ушел в отставку». Готэм в упадке и беззаконии. Теперь, когда городу так нужен его герой, Бэтмен наконец возвращается. В компании Кэрри Келли - девушки-супергероя - Бэтмен решает очистить улицы от банд мутантов, которые наводнили Готэм. После того, как Бэтмен дал отпор своим злейшим врагам Джокеру и Двуликому, он вступает в смертельный бой с бывшим союзником - Суперменом. В этой схватке победит только один.
Рейтинг:

MPAA: PG-13 - Детям до 13 лет просмотр не желателен
Качество: BDRip 720p 60fps
Формат: MKV
Видео: AVC, 1280x720 (16:9), 8750 kbps, 60 fps, 0,158 bpp
Аудио 1: русский / AC3 / 2.0 / 48 kHz / 192 kbps / 16 bit
Аудио 2: английский / AC3 / 5.1 / 48 kHz / 640 kbps / 16 bit |Оригинал (Отдельно в папке)|
Навигация по главам: есть

ОтчетМедиаИнфо

General
Unique ID : 198819476318547503417457784628766780292 (0x95933D0107084DB481053D720E8B2B84)
Format : Matroska
Format version : Version 4 / Version 2
File size : 4.83 GiB
Duration : 1h 15mn
Overall bit rate : 9 124 Kbps
Movie name : Tiberiumsun69
Encoded date : UTC 2016-03-26 05:26:51
Writing application : mkvmerge v8.3.0 ('Over the Horizon') 64bit
Writing library : libebml v1.3.1 + libmatroska v1.4.2
DURATION : 01:12:27.670000000
NUMBER_OF_FRAMES : 888
NUMBER_OF_BYTES : 31098
_STATISTICS_WRITING_APP : mkvmerge v8.3.0 ('Over the Horizon') 64bit
_STATISTICS_WRITING_DATE_UTC : 2016-03-26 05:26:51
_STATISTICS_TAGS : BPS DURATION NUMBER_OF_FRAMES NUMBER_OF_BYTES
Attachment : Yes / Yes
Video
ID : 1
Format : AVC
Format/Info : Advanced Video Codec
Format profile : Main@L4.1
Format settings, CABAC : Yes
Format settings, ReFrames : 3 frames
Codec ID : V_MPEG4/ISO/AVC
Duration : 1h 15mn
Bit rate : 8 751 Kbps
Width : 1 280 pixels
Height : 720 pixels
Display aspect ratio : 16:9
Frame rate : 60.000 fps
Standard : NTSC
Color space : YUV
Chroma subsampling : 4:2:0
Bit depth : 8 bits
Scan type : Progressive
Bits/(Pixel*Frame) : 0.158
Stream size : 4.63 GiB (96%)
Title : Tiberiumsun69
Language : English
Default : Yes
Forced : No
Color primaries : BT.709-5, BT.1361, IEC 61966-2-4, SMPTE RP177
Transfer characteristics : BT.709-5, BT.1361
Matrix coefficients : BT.709-5, BT.1361, IEC 61966-2-4 709, SMPTE RP177
Audio
ID : 2
Format : AC-3
Format/Info : Audio Coding 3
Format profile : Dolby Digital
Mode extension : CM (complete main)
Codec ID : A_AC3
Duration : 1h 15mn
Bit rate mode : Constant
Bit rate : 192 Kbps
Channel(s) : 2 channels
Channel positions : Front: L R
Sampling rate : 48.0 KHz
Bit depth : 16 bits
Compression mode : Lossy
Stream size : 104 MiB (2%)
Title : Дубляж
Language : Russian
Default : Yes
Forced : Yes
Text #1
ID : 3
Format : UTF-8
Codec ID : S_TEXT/UTF8
Codec ID/Info : UTF-8 Plain Text
Title : Полные
Language : Russian
Default : No
Forced : No
Text #2
ID : 4
Format : UTF-8
Codec ID : S_TEXT/UTF8
Codec ID/Info : UTF-8 Plain Text
Title : Полные
Language : English
Default : No
Forced : No
Menu
00:00:00.000 : en:00:00:00.000
00:09:48.296 : en:00:09:48.296
00:19:40.763 : en:00:19:40.763
00:31:00.442 : en:00:31:00.442
00:38:56.334 : en:00:38:56.334
00:48:59.145 : en:00:48:59.145
00:59:12.799 : en:00:59:12.799
01:08:50.918 : en:01:08:50.918
01:12:29.554 : en:01:12:29.554

[Цитировать]



Показать сообщения:    

Текущее время: 02-Дек 22:57

Часовой пояс: UTC + 3


Вы не можете начинать темы
Вы не можете отвечать на сообщения
Вы не можете редактировать свои сообщения
Вы не можете удалять свои сообщения
Вы не можете голосовать в опросах
Вы не можете прикреплять файлы к сообщениям
Вы не можете скачивать файлы

!ВНИМАНИЕ!
Сайт не предоставляет электронные версии произведений, а занимается лишь коллекционированием и каталогизацией ссылок, присылаемых и публикуемых на форуме нашими читателями. Если вы являетесь правообладателем какого-либо представленного материала и не желаете, чтобы ссылка на него находилась в нашем каталоге, свяжитесь с нами, и мы незамедлительно удалим ее. Файлы для обмена на трекере предоставлены пользователями сайта, и администрация не несет ответственности за их содержание. Просьба не заливать файлы, защищенные авторскими правами, а также файлы нелегального содержания!