[ Сегодня идет свободное скачивание без начисления Download ]


Статистика раздачи
Скачал: [ 1 ]
 
   
 
Top  
 
 
Рейд : Дилогия / The Raid : Dilogy (2011-2014) BDRip 720p | 60 fps

Рейд


Название: Рейд
Оригинальное название: The Raid
Год выпуска: 2011
Страна: Индонезия, Франция, США
Жанр: боевик, триллер
Продолжительность: 01:41:04
Перевод: Дубляж, Оригинальный
Субтитры: русские (Полные)
Режиссер: Гарет Эванс
В ролях: Ико Уайс (Rama), Джо Таслим (Jaka), Донни Аламшя (Andi), Яян Рухьян (Mad Dog), Пьер Грюно (Wahyu), Рэй Сахетапи (Tama), Тегар Сатрия (Bowo), Ианг Дармаван (Gofar), Эка «Пиранья» Рахмадия (Dagu), Верди Солайман (Budi), Альфридиус Годфред (Machete Gang #1), Рулли Сантосо (Machete Gang #2)
Описание:
Отряд спецназовцев получает задание проникнуть в многоэтажный дом, расположенный в самом сердце трущоб Джакарты, и арестовать обосновавшегося там наркобарона, которого охраняет целая армия вооруженных до зубов головорезов. Операцию нужно провести без лишнего шума, но нелепая случайность нарушает планы служителей закона. Теперь бойцам негде спрятаться и некуда бежать. Перед ними 30 этажей ада, где смертью грозит каждый неверный шаг. Война по правилам кончилась. Выживает сильнейший!
Рейтинг:

MPAA: R - Лицам до 17 лет обязательно присутствие взрослого
Качество: BDRip 720p 60fps
Формат: MKV
Видео: AVC, 1280x720 (16:9), 8796 kbps, 60 fps, 0,159 bpp
Аудио 1: русский / AC3 / 5.1 / 48 kHz / 640 kbps / 16 bit
Аудио 2: индонезийский / AC3 / 5.1 / 48 kHz / 640 kbps / 16 bit |(Original) Оригинал (Отдельно в папке)|
Навигация по главам: есть

ОтчетМедиаИнфо

General
Unique ID : 195362367516046934042899394739749120582 (0x92F96C615B756B28863A89C027C1EA46)
Format : Matroska
Format version : Version 4 / Version 2
File size : 6.80 GiB
Duration : 1h 41mn
Overall bit rate mode : Variable
Overall bit rate : 9 628 Kbps
Movie name : Tiberiumsun69
Encoded date : UTC 2016-03-26 05:55:32
Writing application : mkvmerge v8.3.0 ('Over the Horizon') 64bit
Writing library : libebml v1.3.1 + libmatroska v1.4.2
DURATION : 01:35:01.404000000
NUMBER_OF_FRAMES : 489
NUMBER_OF_BYTES : 27404
_STATISTICS_WRITING_APP : mkvmerge v8.3.0 ('Over the Horizon') 64bit
_STATISTICS_WRITING_DATE_UTC : 2016-03-26 05:55:32
_STATISTICS_TAGS : BPS DURATION NUMBER_OF_FRAMES NUMBER_OF_BYTES
Attachment : Yes / Yes
Video
ID : 1
Format : AVC
Format/Info : Advanced Video Codec
Format profile : High@L4.1
Format settings, CABAC : Yes
Format settings, ReFrames : 3 frames
Codec ID : V_MPEG4/ISO/AVC
Duration : 1h 41mn
Bit rate mode : Variable
Bit rate : 8 796 Kbps
Maximum bit rate : 10 000 Kbps
Width : 1 280 pixels
Height : 720 pixels
Display aspect ratio : 16:9
Frame rate : 60.000 fps
Standard : NTSC
Color space : YUV
Chroma subsampling : 4:2:0
Bit depth : 8 bits
Scan type : Progressive
Bits/(Pixel*Frame) : 0.159
Stream size : 6.21 GiB (91%)
Title : Tiberiumsun69
Language : English
Default : Yes
Forced : No
Color primaries : BT.709-5, BT.1361, IEC 61966-2-4, SMPTE RP177
Transfer characteristics : BT.709-5, BT.1361
Matrix coefficients : BT.709-5, BT.1361, IEC 61966-2-4 709, SMPTE RP177
Audio
ID : 2
Format : AC-3
Format/Info : Audio Coding 3
Mode extension : CM (complete main)
Codec ID : A_AC3
Duration : 1h 41mn
Bit rate mode : Constant
Bit rate : 640 Kbps
Channel(s) : 6 channels
Channel positions : Front: L C R, Side: L R, LFE
Sampling rate : 48.0 KHz
Bit depth : 16 bits
Compression mode : Lossy
Stream size : 463 MiB (7%)
Title : Дубляж
Language : Russian
Default : Yes
Forced : No
Text
ID : 3
Format : UTF-8
Codec ID : S_TEXT/UTF8
Codec ID/Info : UTF-8 Plain Text
Title : Полные
Language : Russian
Default : No
Forced : No
Menu
00:00:00.000 : en:
00:06:15.124 : en:
00:12:36.380 : en:
00:17:37.765 : en:
00:22:45.696 : en:
00:27:06.916 : en:
00:32:45.880 : en:
00:37:27.495 : en:
00:42:37.888 : en:
00:48:49.927 : en:
00:55:16.104 : en:
00:59:58.720 : en:
01:05:15.828 : en:
01:10:53.332 : en:
01:16:29.167 : en:
01:30:09.779 : en:

Рейд 2


Название: Рейд 2
Оригинальное название: The Raid 2: Berandal
Год выпуска: 2014
Страна: Индонезия, США
Жанр: боевик, триллер, криминал
Продолжительность: 02:30:28
Перевод: Дубляж
Субтитры: русские (Полные), русские (Полные Матвеев (без цензуры)), английские (Полные v1), английские (Полные v2), английские (Полные SDH), английские (Полные SDH Colored), английские (Комментарии)
Режиссер: Гарет Эванс
В ролях: Ико Уайс (Rama), Арифин Путра (Uco), Тио Пакусодево (Bangun), Ока Антара (Eka), Алекс Аббад (Bejo), Чечеп Ариф Рахман (The Assassin), Джулия Эстелл (Alicia «Hammer Girl»), Вери Три Юлисман (Baseball Bat Man), Рюхэй Мацуда (Keichi), Кэнити Эндо (Hideaki Goto), Кадзуки Китамура (Ryuichi), Яян Рухьян (Prakoso)
Описание:
Из трех полицейских, выбравшихся из кровавого ада первой части, в живых остается только офицер Рама. Уволившись из спецназа, он пробует начать жизнь заново, но вскоре прошлое жестко напоминает о себе - преступники убивают его брата. Чтобы отомстить, он внедряется в мощный криминальный синдикат, где быстро поднимается до самых вершин бандитской иерархии. Врагов здесь еще больше, и каждый неверный шаг может оказаться последним. Здесь нет ни близких, ни друзей, ни любви, ни тоски, ни жалости!
Рейтинг:

MPAA: R - Лицам до 17 лет обязательно присутствие взрослого
Качество: BDRip 720p 60fps
Формат: MKV
Видео: AVC, 1280x528 (2.40:1), 6774 kbps, 60 fps, 0,167 bpp
Аудио 1: русский / AC3 / 5.1 / 48 kHz / 640 kbps / 16 bit
Аудио 2: русский / AC3 / 5.1 / 48 kHz / 640 kbps / 16 bit |(AVO) Ю. Сербин (Отдельно в папке)|
Аудио 3: русский / AC3 / 5.1 / 48 kHz / 640 kbps / 16 bit |(VO) А. Матвеев (Отдельно в папке)|
Аудио 4: русский / AC3 / 5.1 / 48 kHz / 640 kbps / 16 bit |(VO) Д. Есарев (Отдельно в папке)|
Аудио 5: украинский / AC3 / 2.0 / 48 kHz / 192 kbps / 16 bit |(MVO) Многоголосый, закадровый (Отдельно в папке)|
Аудио 6: английский / AC3 / 5.1 / 48 kHz / 640 kbps / 16 bit |(Dub) Дубляж (Отдельно в папке)|
Аудио 7: индонезийский / AC3 / 5.1 / 48 kHz / 640 kbps / 16 bit |(Original) Оригинал (Отдельно в папке)|
Аудио 8: английский / AC3 / 2.0 / 48 kHz / 192 kbps / 16 bit |(Commentary) Комментарии реж. (Отдельно в папке)|
Навигация по главам: есть

ОтчетМедиаИнфо

General
Unique ID : 237298553285060015879586035376923356185 (0xB28609F8D55B38B885C97B7E13102C19)
Format : Matroska
Format version : Version 4 / Version 2
File size : 7.95 GiB
Duration : 2h 30mn
Overall bit rate mode : Variable
Overall bit rate : 7 565 Kbps
Movie name : Tiberiumsun69
Encoded date : UTC 2016-03-26 07:23:45
Writing application : mkvmerge v8.3.0 ('Over the Horizon') 64bit
Writing library : libebml v1.3.1 + libmatroska v1.4.2
DURATION : 02:25:39.148000000
NUMBER_OF_FRAMES : 2611
NUMBER_OF_BYTES : 147177
_STATISTICS_WRITING_APP : mkvmerge v8.3.0 ('Over the Horizon') 64bit
_STATISTICS_WRITING_DATE_UTC : 2016-03-26 07:23:45
_STATISTICS_TAGS : BPS DURATION NUMBER_OF_FRAMES NUMBER_OF_BYTES
Attachment : Yes
Video
ID : 1
Format : AVC
Format/Info : Advanced Video Codec
Format profile : High@L4.1
Format settings, CABAC : Yes
Format settings, ReFrames : 3 frames
Codec ID : V_MPEG4/ISO/AVC
Duration : 2h 30mn
Bit rate mode : Variable
Bit rate : 6 774 Kbps
Maximum bit rate : 8 000 Kbps
Width : 1 280 pixels
Height : 528 pixels
Display aspect ratio : 2.40:1
Frame rate : 60.000 fps
Standard : NTSC
Color space : YUV
Chroma subsampling : 4:2:0
Bit depth : 8 bits
Scan type : Progressive
Bits/(Pixel*Frame) : 0.167
Stream size : 7.12 GiB (90%)
Title : Tiberiumsun69
Language : English
Default : Yes
Forced : No
Color primaries : BT.601-6 525, BT.1358 525, BT.1700 NTSC, SMPTE 170M
Transfer characteristics : BT.601-6 525, BT.601-6 625, BT.1358 525, BT.1358 625, BT.1700 NTSC, SMPTE 170M
Matrix coefficients : BT.601-6 525, BT.1358 525, BT.1700 NTSC, SMPTE 170M
Audio
ID : 2
Format : AC-3
Format/Info : Audio Coding 3
Mode extension : CM (complete main)
Codec ID : A_AC3
Duration : 2h 30mn
Bit rate mode : Constant
Bit rate : 640 Kbps
Channel(s) : 6 channels
Channel positions : Front: L C R, Side: L R, LFE
Sampling rate : 48.0 KHz
Bit depth : 16 bits
Compression mode : Lossy
Stream size : 689 MiB (8%)
Title : Дубляж
Language : Russian
Default : Yes
Forced : No
Text #1
ID : 3
Format : UTF-8
Codec ID : S_TEXT/UTF8
Codec ID/Info : UTF-8 Plain Text
Title : Полные
Language : Russian
Default : No
Forced : No
Text #2
ID : 4
Format : UTF-8
Codec ID : S_TEXT/UTF8
Codec ID/Info : UTF-8 Plain Text
Title : Полные Матвеев (без цензуры)
Language : Russian
Default : No
Forced : No
Text #3
ID : 5
Format : UTF-8
Codec ID : S_TEXT/UTF8
Codec ID/Info : UTF-8 Plain Text
Title : Полные v1
Language : English
Default : No
Forced : No
Text #4
ID : 6
Format : UTF-8
Codec ID : S_TEXT/UTF8
Codec ID/Info : UTF-8 Plain Text
Title : Полные v2
Language : English
Default : No
Forced : No
Text #5
ID : 7
Format : UTF-8
Codec ID : S_TEXT/UTF8
Codec ID/Info : UTF-8 Plain Text
Title : Полные SDH
Language : English
Default : No
Forced : No
Text #6
ID : 8
Format : UTF-8
Codec ID : S_TEXT/UTF8
Codec ID/Info : UTF-8 Plain Text
Title : Полные SDH Colored
Language : English
Default : No
Forced : No
Text #7
ID : 9
Format : UTF-8
Codec ID : S_TEXT/UTF8
Codec ID/Info : UTF-8 Plain Text
Title : Комментарии
Language : English
Default : No
Forced : No
Menu
00:00:00.000 : :Chapter 01
00:08:02.315 : :Chapter 02
00:14:03.217 : :Chapter 03
00:21:08.892 : :Chapter 04
00:31:45.486 : :Chapter 05
00:42:22.122 : :Chapter 06
00:50:55.177 : :Chapter 07
01:01:58.423 : :Chapter 08
01:11:49.763 : :Chapter 09
01:24:47.165 : :Chapter 10
01:36:31.994 : :Chapter 11
01:44:18.752 : :Chapter 12
01:48:31.713 : :Chapter 13
01:57:20.283 : :Chapter 14
02:05:59.093 : :Chapter 15
02:20:02.894 : :Chapter 16

[Цитировать]



Показать сообщения:    

Текущее время: 09-Дек 20:32

Часовой пояс: UTC + 3


Вы не можете начинать темы
Вы не можете отвечать на сообщения
Вы не можете редактировать свои сообщения
Вы не можете удалять свои сообщения
Вы не можете голосовать в опросах
Вы не можете прикреплять файлы к сообщениям
Вы не можете скачивать файлы

!ВНИМАНИЕ!
Сайт не предоставляет электронные версии произведений, а занимается лишь коллекционированием и каталогизацией ссылок, присылаемых и публикуемых на форуме нашими читателями. Если вы являетесь правообладателем какого-либо представленного материала и не желаете, чтобы ссылка на него находилась в нашем каталоге, свяжитесь с нами, и мы незамедлительно удалим ее. Файлы для обмена на трекере предоставлены пользователями сайта, и администрация не несет ответственности за их содержание. Просьба не заливать файлы, защищенные авторскими правами, а также файлы нелегального содержания!