[ Сегодня идет свободное скачивание без начисления Download ]


Статистика раздачи
Скачал: [ 2 ]
 
   
 
Top  
 
 
Люцифер / Lucifer- Год выпуска: 2016
Страна: США
Жанр: фэнтези, драма
Продолжительность: ~ 00:43:00
Перевод: Профессиональный (многоголосый закадровый) Fox Life-Режиссёр: Лен Уайзман, Мэтт Эрл Бисли, Эгил Эгилссон
В ролях: Том Эллис, Лорен Джерман, Рэйчел Харрис, Лесли-Энн Брандт, Мэтт Корбой, Скарлет Эстевез, Джонатан Салисбери-Описание: Заскучавший и несчастный повелитель преисподней, Люцифер Морнингстар оставил свой престол и отправился в современный Лос-Анджелес, где основал ночной клуб «Lux». Очаровательный, харизматичный и дьявольски привлекательный Люцифер наслаждается своим отдыхом — вином, женщинами и музыкой — пока красивая поп-звезда не оказывается убитой на пороге его клуба…- -Релиз:
Запись и сведение: SerGV-Семпл-Качество: WEB-DL 720p
Формат: MKV
Видео кодек: MPEG-4 AVC
Аудио кодек: AC3
Видео: MPEG-4 AVC, ~4033 kbps, 1280x718 (16:9), 25.000 fps, 0.176 bit/pixel
Аудио #1: Russian: АС3, 48 kHz, 2 ch, ~192 kbps - Fox Life
Аудио #2: Englbsh: АС3, 48 kHz, 6 ch, ~384 kbps
Субтитры: Английские-

MediaInfo

General
Unique ID : 174459952969968129199320219939052925109 (0x833FC3C6CB96A30A9DD59CB1C29B30B5)
Complete name : ...Lucifer.S01E01.Pilot.720p.WEB-DL.Rus.Eng.CasStudio.mkv
Format : Matroska
Format version : Version 4 / Version 2
File size : 1.42 GiB
Duration : 43mn 4s
Overall bit rate : 4 703 Kbps
Movie name : Lucifer (2016) S01E01 - Pilot @ release by SerGV for CasStudio
Encoded date : UTC 2016-02-22 19:00:32
Writing application : mkvmerge v8.3.0 ('Over the Horizon') 64bit
Writing library : libebml v1.3.1 + libmatroska v1.4.2
Cover : Yes
Attachments : cover.jpg
Video
ID : 1
Format : AVC
Format/Info : Advanced Video Codec
Format profile : High@L3.1
Format settings, CABAC : No
Format settings, ReFrames : 2 frames
Codec ID : V_MPEG4/ISO/AVC
Duration : 43mn 4s
Bit rate : 4 033 Kbps
Width : 1 280 pixels
Height : 718 pixels
Display aspect ratio : 16:9
Frame rate mode : Constant
Frame rate : 25.000 fps
Color space : YUV
Chroma subsampling : 4:2:0
Bit depth : 8 bits
Scan type : Progressive
Bits/(Pixel*Frame) : 0.176
Stream size : 1.21 GiB (86%)
Language : English
Default : Yes
Forced : No
Color range : Limited
Color primaries : BT.709
Transfer characteristics : BT.709
Matrix coefficients : BT.709
Audio #1
ID : 2
Format : AC-3
Format/Info : Audio Coding 3
Mode extension : CM (complete main)
Format settings, Endianness : Big
Codec ID : A_AC3
Duration : 43mn 4s
Bit rate mode : Constant
Bit rate : 192 Kbps
Channel(s) : 2 channels
Channel positions : Front: L R
Sampling rate : 48.0 KHz
Frame rate : 31.250 fps (1536 spf)
Compression mode : Lossy
Stream size : 59.2 MiB (4%)
Title : DD 2.0 @ 192 kbps - Многоголосый закадровый, Fox Life
Language : Russian
Default : Yes
Forced : No
Audio #2
ID : 3
Format : AC-3
Format/Info : Audio Coding 3
Mode extension : CM (complete main)
Format settings, Endianness : Big
Codec ID : A_AC3
Duration : 43mn 4s
Bit rate mode : Constant
Bit rate : 384 Kbps
Channel(s) : 6 channels
Channel positions : Front: L C R, Side: L R, LFE
Sampling rate : 48.0 KHz
Frame rate : 31.250 fps (1536 spf)
Compression mode : Lossy
Stream size : 118 MiB (8%)
Title : DD 5.1 @ 384 kbps - Original
Language : English
Default : No
Forced : No
Text
ID : 4
Format : UTF-8
Codec ID : S_TEXT/UTF8
Codec ID/Info : UTF-8 Plain Text
Language : English
Default : No
Forced : No

Скриншоты



Последний раз редактировалось: Robocool (2016-10-23 22:10), всего редактировалось 5 раз(а)

[Цитировать]

Топик был перенесен из форума Зарубежные сериалы в форум Зарубежные сериалы HD
Viktor1952

1-13 серии. Финал сезона!

[Цитировать]



Показать сообщения:    

Текущее время: 09-Дек 01:08

Часовой пояс: UTC + 3


Вы не можете начинать темы
Вы не можете отвечать на сообщения
Вы не можете редактировать свои сообщения
Вы не можете удалять свои сообщения
Вы не можете голосовать в опросах
Вы не можете прикреплять файлы к сообщениям
Вы не можете скачивать файлы

!ВНИМАНИЕ!
Сайт не предоставляет электронные версии произведений, а занимается лишь коллекционированием и каталогизацией ссылок, присылаемых и публикуемых на форуме нашими читателями. Если вы являетесь правообладателем какого-либо представленного материала и не желаете, чтобы ссылка на него находилась в нашем каталоге, свяжитесь с нами, и мы незамедлительно удалим ее. Файлы для обмена на трекере предоставлены пользователями сайта, и администрация не несет ответственности за их содержание. Просьба не заливать файлы, защищенные авторскими правами, а также файлы нелегального содержания!