[ Сегодня идет свободное скачивание без начисления Download ]


Статистика раздачи
Нет
 
   
 
Top  
 
 
Черная книга / Zwartboek (2006) BDRip 720p Информация о фильме
Название: Чёрная книга
Оригинальное название: Zwartboek (Black Book)
Год выхода: 2006
Жанр: Триллер, драма, военный, реальные события
Режиссёр: Пол Верховен
В ролях: Кэрис ван Хаутен, Себастьян Кох, Том Хоффман, Халина Рейн, Вальдемар Кобус, Дерек де Линт, Кристиан Беркель, Дольф де Врис, Питер Блок, Мишель Хайсмэн, Рональд Армруст, Фрэнк Ламмерс, Маттиас Шонартс, Джонни Де Мол, Ксандер Страат, Диана Доббельман, Рихт Ледди, Лидевиж Малер, Питер Тидденс, Гийс Нейбр, Дирк Зеленберг, Мишель Де Йонг, Йобст Шниббе, Борис Саран, Джек Вехт, Жаклин Блом, Сет Камфуйджис, Херман Берман, Скип Гере, Берт Луппес, Мариса Ван Эйле, Хелин Менёр, Бас Ван Дер Хорс
О фильме:
Вторая мировая война. Рахиль Штайн — немка еврейского происхождения. Спасаясь от фашистского геноцида, она находит пристанище в Нидерландах, где присоединяется к движению Сопротивления. Рахиль непременно должна найти предателя, по вине которого погибла вся ее семья. Отныне месть — смысл ее жизни…

Выпущено: Нидерланды, Германия, Великобритания, Бельгия, AVRO Television, Clockwork Pictures, Egoli Tossell Film AG, Hector BV
Продолжительность: 02:25:38
Перевод: Дублированный (Пифагор), авторский одноголосый (А. Алексеев)
Оригинальная аудио-дорожка: Голландская (Немецкая), английская - комментарии режиссёра Пола Верховена
Файл:
Формат: MKV
Кодек: MPEG-4 AVC
Качество: BDRip (720p) [Исходник: Blu-ray Remux (1080p) от NovaLan]
Видео: MPEG-4 AVC, 1280x544 (2.35:1), 5869 Кбит/с, 23.976 кадр/с, 0.352 bit/pixel
Аудио #1: Русский, Dolby AC3, 48000 Гц, 640 Кбит/с, 6 каналов (5.1) - DUB [Пифагор]
Аудио #2: Русский, Dolby AC3, 48000 Гц, 448 Кбит/с, 6 каналов (5.1) - AVO [А. Алексеев]
Аудио #3: Голландский (Немецкий), Dolby AC3, 48000 Гц, 640 Кбит/с, 6 каналов (5.1) - Оригинал
Аудио #4: Английский, Dolby AC3, 48000 Гц, 192 Кбит/с, 2 канала (Стерео) - Комментарии режиссёра Пола Верховена
Субтитры: Русские, украинские, английские (полные) SRT
Навигация по главам: Есть (Сохранены оригинальные чаптеры, как на Blu-ray)

Знаете ли вы, что...

Идея создания фильма родилась у режиссёра Пола Верховена и сценариста Херарда Сутемана во время подготовки к съёмкам «Солдат королевы» (1977). Вместо того чтобы внедрить дополнительную сюжетную линию в картину, они решили создать в будущем самостоятельный фильм, работа над сценарием которого шла на протяжении почти двух десятков лет.
Работа над фильмом была на грани полного срыва в 2004 году, когда ряд зарубежных компаний так и не выполнил свои обязательства по финансированию проекта. Производство было возобновлено только осенью 2005 года, когда необходимый бюджет в 16 млн евро всё-таки был обеспечен. Более 2 млн евро из этой суммы внесли различные голландские общественные организации и министерство образования и культуры. Из-за столь серьезной задержки у продюсеров оставалось немногим более двух месяцев непосредственно на съёмочный процесс.
С бюджетом в более чем 16 миллионов евро фильм стал самым дорогим проектом за всю историю голландского кинематографа.
Фильм был выдвинут от Голландии на Оскар в категории лучший фильм на иностранном языке, прошёл в шорт-лист из девяти претендентов, но остался за бортом финальной пятёрки номинантов.
Многие актёры в киноленте разговаривают более чем на одном языке. Сложнее всего пришлось Кэрис Ван Хаутен, которая разговаривает на четырёх разных языках. В большей части фильма она говорит на родном голландском, в сценах в Израиле на иврите, с немецкими солдатами на немецком и с канадскими военными на английском.
Серьёзная задержка в производстве фильма повлекла за собой то, что исполнительница главной роли Кэрис Ван Хаутен уже дала согласие сыграть в театральной постановке. Театральная компания подала иск к продюсерам фильма, требуя компенсацию за перенос объявленной пьесы, и получила 60 тысяч евро в качестве возмещения понесённого ущерба.
Роль лидера сопротивления Гербена Куйперса первоначально должен был сыграть Гийс Шолтен ван Ашат, но из-за вынужденной задержки с производством фильма актёр оказался занят в театральной постановке. В поисках подходящей замены режиссёр обратил внимание на Дерека де Линта, с которым уже работал ранее 28 лет назад на съемках «Солдат королевы».
Многим членам съёмочной группы пришлось прождать более года для того, чтобы получить причитающийся им гонорар за проделанную работу, поскольку продюсеры полностью израсходовали все средства ещё до того, как производство было полностью завершено.
Самая масштабная в фильме сцена освобождения Гааги была снята с привлечением более чем 1200 человек массовки.
Одновременно с фильмом 1 сентября 2006 года вышла его новеллизация, которую написал голландский писатель Лоренс Аббинк Спайнк. Книга сопровождалась иллюстрациями в виде кадров из фильма и послесловием режиссёра Пола Верховена и сценариста Херарда Сутемана.

x264 лог

x264 [info]: frame I:1846 Avg QP:13.08 size:142536
x264 [info]: frame P:50555 Avg QP:16.48 size: 52835
x264 [info]: frame B:157117 Avg QP:18.18 size: 20785
x264 [info]: consecutive B-frames: 2.9% 4.8% 12.7% 23.2% 17.8% 29.1% 5.3% 4.3%

MediaInfo

General
Unique ID : 211749016485414241350048963110029803966 (0x9F4D608D30821B8397910559C1C4C1BE)
Complete name : Zwartboek.2006.BDRip.720p.mkv
Format : Matroska
Format version : Version 4 / Version 2
File size : 7.92 GiB
Duration : 2h 25mn
Overall bit rate : 7 773 Kbps
Movie name : Чёрная книга / Zwartboek (Black Book) (2006) BDRip (720p) от ivandubskoj
Encoded date : UTC 2016-03-27 17:48:22
Writing application : mkvmerge v7.8.0 ('River Man') 64bit built on Mar 27 2015 16:31:37
Writing library : libebml v1.3.1 + libmatroska v1.4.2
Video
ID : 1
Format : AVC
Format/Info : Advanced Video Codec
Format profile : High@L4.1
Format settings, CABAC : Yes
Format settings, ReFrames : 9 frames
Codec ID : V_MPEG4/ISO/AVC
Duration : 2h 25mn
Bit rate : 5 869 Kbps
Width : 1 280 pixels
Height : 544 pixels
Display aspect ratio : 2.35:1
Frame rate mode : Constant
Frame rate : 23.976 fps
Color space : YUV
Chroma subsampling : 4:2:0
Bit depth : 8 bits
Scan type : Progressive
Bits/(Pixel*Frame) : 0.352
Stream size : 5.80 GiB (73%)
Title : Чёрная книга / Zwartboek (2006)
Writing library : x264 core 146 r2538 121396c
Encoding settings : cabac=1 / ref=9 / deblock=1:-3:-3 / analyse=0x3:0x113 / me=umh / subme=11 / psy=1 / psy_rd=1.00:0.00 / mixed_ref=1 / me_range=32 / chroma_me=1 / trellis=2 / 8x8dct=1 / cqm=0 / deadzone=21,11 / fast_pskip=0 / chroma_qp_offset=-2 / threads=6 / lookahead_threads=1 / sliced_threads=0 / nr=0 / decimate=1 / interlaced=0 / bluray_compat=0 / constrained_intra=0 / bframes=7 / b_pyramid=2 / b_adapt=2 / b_bias=0 / direct=3 / weightb=1 / open_gop=0 / weightp=2 / keyint=240 / keyint_min=23 / scenecut=40 / intra_refresh=0 / rc_lookahead=60 / rc=2pass / mbtree=1 / bitrate=5869 / ratetol=1.0 / qcomp=0.60 / qpmin=0 / qpmax=69 / qpstep=4 / cplxblur=20.0 / qblur=0.5 / vbv_maxrate=50000 / vbv_bufsize=62500 / nal_hrd=none / filler=0 / ip_ratio=1.40 / aq=1:1.00
Language : English
Default : Yes
Forced : No
Audio #1
ID : 2
Format : AC-3
Format/Info : Audio Coding 3
Mode extension : CM (complete main)
Format settings, Endianness : Big
Codec ID : A_AC3
Duration : 2h 25mn
Bit rate mode : Constant
Bit rate : 640 Kbps
Channel(s) : 6 channels
Channel positions : Front: L C R, Side: L R, LFE
Sampling rate : 48.0 KHz
Bit depth : 16 bits
Compression mode : Lossy
Stream size : 667 MiB (8%)
Title : DUB [Пифагор]
Language : Russian
Default : Yes
Forced : No
Audio #2
ID : 3
Format : AC-3
Format/Info : Audio Coding 3
Mode extension : CM (complete main)
Format settings, Endianness : Big
Codec ID : A_AC3
Duration : 2h 25mn
Bit rate mode : Constant
Bit rate : 448 Kbps
Channel(s) : 6 channels
Channel positions : Front: L C R, Side: L R, LFE
Sampling rate : 48.0 KHz
Bit depth : 16 bits
Compression mode : Lossy
Stream size : 467 MiB (6%)
Title : AVO [А. Алексеев]
Language : Russian
Default : No
Forced : No
Audio #3
ID : 4
Format : AC-3
Format/Info : Audio Coding 3
Mode extension : CM (complete main)
Format settings, Endianness : Big
Codec ID : A_AC3
Duration : 2h 25mn
Bit rate mode : Constant
Bit rate : 640 Kbps
Channel(s) : 6 channels
Channel positions : Front: L C R, Side: L R, LFE
Sampling rate : 48.0 KHz
Bit depth : 16 bits
Compression mode : Lossy
Stream size : 667 MiB (8%)
Title : Original
Language : Dutch
Default : No
Forced : No
Audio #4
ID : 5
Format : AC-3
Format/Info : Audio Coding 3
Format profile : Dolby Digital
Mode extension : CM (complete main)
Format settings, Endianness : Big
Codec ID : A_AC3
Duration : 2h 25mn
Bit rate mode : Constant
Bit rate : 192 Kbps
Channel(s) : 2 channels
Channel positions : Front: L R
Sampling rate : 48.0 KHz
Bit depth : 16 bits
Compression mode : Lossy
Stream size : 200 MiB (2%)
Title : Director's Commentary
Language : English
Default : No
Forced : No
Text #1
ID : 6
Format : UTF-8
Codec ID : S_TEXT/UTF8
Codec ID/Info : UTF-8 Plain Text
Title : Full
Language : Russian
Default : No
Forced : No
Text #2
ID : 7
Format : UTF-8
Codec ID : S_TEXT/UTF8
Codec ID/Info : UTF-8 Plain Text
Title : Full
Language : Ukrainian
Default : No
Forced : No
Text #3
ID : 8
Format : UTF-8
Codec ID : S_TEXT/UTF8
Codec ID/Info : UTF-8 Plain Text
Title : Full
Language : English
Default : No
Forced : No
Menu
00:00:00.000 : en:Chapter 1
00:08:12.283 : en:Chapter 2
00:15:25.966 : en:Chapter 3
00:25:08.798 : en:Chapter 4
00:34:57.762 : en:Chapter 5
00:45:45.784 : en:Chapter 6
00:50:36.742 : en:Chapter 7
01:01:15.380 : en:Chapter 8
01:11:21.193 : en:Chapter 9
01:18:03.512 : en:Chapter 10
01:27:57.939 : en:Chapter 11
01:34:44.428 : en:Chapter 12
01:45:51.970 : en:Chapter 13
01:55:33.509 : en:Chapter 14
02:06:57.568 : en:Chapter 15
02:15:50.725 : en:Chapter 16

Скриншоты



[Цитировать]



Показать сообщения:    

Текущее время: 09-Дек 12:47

Часовой пояс: UTC + 3


Вы не можете начинать темы
Вы не можете отвечать на сообщения
Вы не можете редактировать свои сообщения
Вы не можете удалять свои сообщения
Вы не можете голосовать в опросах
Вы не можете прикреплять файлы к сообщениям
Вы не можете скачивать файлы

!ВНИМАНИЕ!
Сайт не предоставляет электронные версии произведений, а занимается лишь коллекционированием и каталогизацией ссылок, присылаемых и публикуемых на форуме нашими читателями. Если вы являетесь правообладателем какого-либо представленного материала и не желаете, чтобы ссылка на него находилась в нашем каталоге, свяжитесь с нами, и мы незамедлительно удалим ее. Файлы для обмена на трекере предоставлены пользователями сайта, и администрация не несет ответственности за их содержание. Просьба не заливать файлы, защищенные авторскими правами, а также файлы нелегального содержания!