[ Today is free to download without increasing Download ]

DL-List and Torrent activity
Дрожь земли 5: Кровное родство
Год выпуска: 2015
Страна: США
Жанр: ужасы, фантастика, боевик, вестерн
Продолжительность: 01:39:02
Перевод: Профессиональный (полное дублирование) [лицензия]-Режиссер: Дон Майкл Пол-В ролях: Майкл Гросс (Burt Gummer), Джейми Кеннеди (Travis B. Welker), Брэндон Оре (Johan Dreyer), Натали Бекер (Lucia), Эммануэль Кастис (Dr. Michael Swan), Зак Хендрикз (Riley), Дэниэл Дженкс (Erich Van Wyk), Лоуренс Джофф (Basson), Эрнест Ндлову (Ndebele Chieftain), Реа Рангака (Baruti), Йен Робертс (Den Bravers), Селло Себотсейн (Thaba)-Описание:
Гигантские черви-людоеды, известные как Грабоиды, терроризируют жителей Южной Африки. И самое страшное - это то, что Грабоиды со временем превратились в еще более опасных тварей...-Рейтинг:

MPAA: PG-13 - Детям до 13 лет просмотр не желателен-Качество: BDRip | исх. TREMORS_5_BLOODLINES_REMUX_HDCLUB |
Формат: AVI
Видео: XviD, 704x400 (16:9), 1654 kbps, 23,976 fps, 0,245 bpp
Аудио: AC3 / 5.1 / 48 kHz / 448 kbps / 16 bit-Сэмпл-


Complete name                            :Drozh.zemli.5.Krovnoe.rodstvo.2015.D.BDRip.1.46Gb_by_Twi7ter.avi
Format                                   : AVI
Format/Info                              : Audio Video Interleave
File size                                : 1.46 GiB
Duration                                 : 1h 39mn
Overall bit rate                         : 2 111 Kbps
Movie name                               : Drozh.zemli.5.Krovnoe.rodstvo.2015.D.BDRip.1.46Gb_by_Twi7ter
Director                                 : Twi7ter
Genre                                    : Horror/Fantasy/Action
Original source form/Name                : Movie
ID                                       : 0
Format                                   : MPEG-4 Visual
Format profile                           : Advanced Simple@L5
Format settings, BVOP                    : 2
Format settings, QPel                    : No
Format settings, GMC                     : No warppoints
Format settings, Matrix                  : Custom
Codec ID                                 : XVID
Codec ID/Hint                            : XviD
Duration                                 : 1h 39mn
Bit rate                                 : 1 655 Kbps
Width                                    : 704 pixels
Height                                   : 400 pixels
Display aspect ratio                     : 16:9
Frame rate                               : 23.976 fps
Color space                              : YUV
Chroma subsampling                       : 4:2:0
Bit depth                                : 8 bits
Scan type                                : Progressive
Compression mode                         : Lossy
Bits/(Pixel*Frame)                       : 0.245
Stream size                              : 1.14 GiB (78%)
Writing library                          : XviD 73
ID                                       : 1
Format                                   : AC-3
Format/Info                              : Audio Coding 3
Mode extension                           : CM (complete main)
Codec ID                                 : 2000
Duration                                 : 1h 38mn
Bit rate mode                            : Constant
Bit rate                                 : 448 Kbps
Channel(s)                               : 6 channels
Channel positions                        : Front: L C R, Side: L R, LFE
Sampling rate                            : 48.0 KHz
Bit depth                                : 16 bits
Compression mode                         : Lossy
Stream size                              : 317 MiB (21%)
Alignment                                : Aligned on interleaves
Interleave, duration                     : 42 ms (1.00 video frame)
Interleave, preload duration             : 512 ms




Торент перезалит на Мультираздачю


Топик был перенесен из форума Новинки кинопроката (HD Video) в форум Новинки кинопроката

Display posts:    

Current time is: 25-Oct 04:26

All times are UTC + 3

You cannot post new topics in this forum
You cannot reply to topics in this forum
You cannot edit your posts in this forum
You cannot delete your posts in this forum
You cannot vote in polls in this forum
You cannot attach files in this forum
You cannot download files in this forum

The site does not give electronic versions of products, and is engaged only in a collecting and cataloguing of the references sent and published at a forum by our readers. If you are the legal owner of any submitted material and do not wish that the reference to it was in our catalogue, contact us and we shall immediately remove her. Files for an exchange on tracker are given by users of a site, and the administration does not bear the responsibility for their maintenance. The request to not fill in the files protected by copyrights, and also files of the illegal maintenance!