[ Сегодня идет свободное скачивание без начисления Download ]


Статистика раздачи
Нет
 
   
 
Top  
 
 
Дрожь земли 5: Кровное родство
Год выпуска: 2015
Страна: США
Жанр: ужасы, фантастика, боевик, вестерн
Продолжительность: 01:39:02
Перевод: Профессиональный (полное дублирование) [лицензия]-Режиссер: Дон Майкл Пол-В ролях: Майкл Гросс (Burt Gummer), Джейми Кеннеди (Travis B. Welker), Брэндон Оре (Johan Dreyer), Натали Бекер (Lucia), Эммануэль Кастис (Dr. Michael Swan), Зак Хендрикз (Riley), Дэниэл Дженкс (Erich Van Wyk), Лоуренс Джофф (Basson), Эрнест Ндлову (Ndebele Chieftain), Реа Рангака (Baruti), Йен Робертс (Den Bravers), Селло Себотсейн (Thaba)-Описание:
Гигантские черви-людоеды, известные как Грабоиды, терроризируют жителей Южной Африки. И самое страшное - это то, что Грабоиды со временем превратились в еще более опасных тварей...-Рейтинг:

MPAA: PG-13 - Детям до 13 лет просмотр не желателен-Качество: BDRip | исх. TREMORS_5_BLOODLINES_REMUX_HDCLUB |
Формат: AVI
Видео: XviD, 704x400 (16:9), 1654 kbps, 23,976 fps, 0,245 bpp
Аудио: AC3 / 5.1 / 48 kHz / 448 kbps / 16 bit-Сэмпл-

МедиаИнфо

General
Complete name                            :Drozh.zemli.5.Krovnoe.rodstvo.2015.D.BDRip.1.46Gb_by_Twi7ter.avi
Format                                   : AVI
Format/Info                              : Audio Video Interleave
File size                                : 1.46 GiB
Duration                                 : 1h 39mn
Overall bit rate                         : 2 111 Kbps
Movie name                               : Drozh.zemli.5.Krovnoe.rodstvo.2015.D.BDRip.1.46Gb_by_Twi7ter
Director                                 : Twi7ter
Genre                                    : Horror/Fantasy/Action
Original source form/Name                : Movie
Video
ID                                       : 0
Format                                   : MPEG-4 Visual
Format profile                           : Advanced Simple@L5
Format settings, BVOP                    : 2
Format settings, QPel                    : No
Format settings, GMC                     : No warppoints
Format settings, Matrix                  : Custom
Codec ID                                 : XVID
Codec ID/Hint                            : XviD
Duration                                 : 1h 39mn
Bit rate                                 : 1 655 Kbps
Width                                    : 704 pixels
Height                                   : 400 pixels
Display aspect ratio                     : 16:9
Frame rate                               : 23.976 fps
Color space                              : YUV
Chroma subsampling                       : 4:2:0
Bit depth                                : 8 bits
Scan type                                : Progressive
Compression mode                         : Lossy
Bits/(Pixel*Frame)                       : 0.245
Stream size                              : 1.14 GiB (78%)
Writing library                          : XviD 73
Audio
ID                                       : 1
Format                                   : AC-3
Format/Info                              : Audio Coding 3
Mode extension                           : CM (complete main)
Codec ID                                 : 2000
Duration                                 : 1h 38mn
Bit rate mode                            : Constant
Bit rate                                 : 448 Kbps
Channel(s)                               : 6 channels
Channel positions                        : Front: L C R, Side: L R, LFE
Sampling rate                            : 48.0 KHz
Bit depth                                : 16 bits
Compression mode                         : Lossy
Stream size                              : 317 MiB (21%)
Alignment                                : Aligned on interleaves
Interleave, duration                     : 42 ms (1.00 video frame)
Interleave, preload duration             : 512 ms

Скриншоты


Релиз:

[Цитировать]

Торент перезалит на Мультираздачю

[Цитировать]

Топик был перенесен из форума Новинки кинопроката (HD Video) в форум Новинки кинопроката
Viktor1952



Показать сообщения:    

Текущее время: 02-Дек 21:02

Часовой пояс: UTC + 3


Вы не можете начинать темы
Вы не можете отвечать на сообщения
Вы не можете редактировать свои сообщения
Вы не можете удалять свои сообщения
Вы не можете голосовать в опросах
Вы не можете прикреплять файлы к сообщениям
Вы не можете скачивать файлы

!ВНИМАНИЕ!
Сайт не предоставляет электронные версии произведений, а занимается лишь коллекционированием и каталогизацией ссылок, присылаемых и публикуемых на форуме нашими читателями. Если вы являетесь правообладателем какого-либо представленного материала и не желаете, чтобы ссылка на него находилась в нашем каталоге, свяжитесь с нами, и мы незамедлительно удалим ее. Файлы для обмена на трекере предоставлены пользователями сайта, и администрация не несет ответственности за их содержание. Просьба не заливать файлы, защищенные авторскими правами, а также файлы нелегального содержания!