[ Сегодня идет свободное скачивание без начисления Download ]


Статистика раздачи
Нет
 
   
 
Top  
 
 
Тряпичный союз Информация о фильме
Название: Тряпичный союз
Год выпуска: 2015
Страна: Россия
Жанр: комедия, драма-Перевод: Не требуется: оригинал [iTunes]
Продолжительность: 01:38:40-Режиссер: Михаил Местецкий
В ролях: Иван Янковский, Александр Паль, Василий Буткевич, Павел Чинарёв, Анастасия Пронина, Федор Лавров, Елена Нестерова, Владислав Ветров, Кирилл Кяро, Андрей Крыжний, Петр Буслов, Александр Яценко-Описание:
Жизнь тихого подростка Вани меняется после знакомства с тремя очень странными парнями. Спортсмены, хулиганы, мечтатели, они называют себя «Тряпичный Союз» и верят, что изменят весь мир. Очарованный новой дружбой, Ваня поселяет парней у себя на даче и всеми силами пытается стать частью их «величайшей организации». Но у соседской девочки Саши свои планы на эту компанию.-Рейтинг:
-Качество: WEB-DLRip-AVC
Формат: MKV
Видео: AVC, 1024x576 (16:9), 2348 kbps, 24 fps, 0.166 bpp
Аудио: русский / AC3 / 5.1 / 48 kHz / 384 kbps / 16 bit |iTunes|
Навигация по главам: есть
Семпл-

ОтчетМедиаИнфо

Общее
Уникальный идентификатор : 236680959934664371250813079098461178730 (0xB20F1844D79A468CBA7100BAB79ACB6A)
Полное имя : H:Trjapichnyj.sojuz.2015.Web.DLRip.AVC.mkv
Формат : Matroska
Версия формата : Version 4 / Version 2
Размер файла : 1,88 Гбайт
Длительность : 1 ч. 38 м.
Общий поток : 2733 Кбит/сек
Название фильма : Тряпичный союз (2015) WEB-DLRip-AVC by R.G. Resident
Дата кодирования : UTC 2016-03-28 17:30:39
Программа кодирования : mkvmerge v9.0.0 ('Power to progress') 64bit
Библиотека кодирования : libebml v1.3.3 + libmatroska v1.4.4
Видео
Идентификатор : 1
Формат : AVC
Формат/Информация : Advanced Video Кодек
Профиль формата : High@L4.1
Параметр CABAC формата : Да
Параметр ReFrames формата : 9 кадров
Идентификатор кодека : V_MPEG4/ISO/AVC
Длительность : 1 ч. 38 м.
Битрейт : 2348 Кбит/сек
Ширина : 1024 пикселя
Высота : 576 пикселей
Соотношение сторон : 16:9
Режим частоты кадров : Постоянный
Частота кадров : 24,000 кадра/сек
Цветовое пространство : YUV
Субдискретизация насыщенности : 4:2:0
Битовая глубина : 8 бит
Тип развёртки : Прогрессивная
Бит/(Пиксели*Кадры) : 0.166
Размер потока : 1,62 Гбайт (86%)
Заголовок : -Lexx-
Библиотека кодирования : x264 core 146 r2538 121396c
Настройки программы : cabac=1 / ref=9 / deblock=1:-3:-3 / analyse=0x3:0x113 / me=umh / subme=11 / psy=1 / psy_rd=1.00:0.10 / mixed_ref=1 / me_range=48 / chroma_me=1 / trellis=2 / 8x8dct=1 / cqm=0 / deadzone=21,11 / fast_pskip=0 / chroma_qp_offset=-3 / threads=6 / lookahead_threads=2 / sliced_threads=0 / nr=0 / decimate=1 / interlaced=0 / bluray_compat=0 / constrained_intra=0 / bframes=10 / b_pyramid=2 / b_adapt=2 / b_bias=0 / direct=3 / weightb=1 / open_gop=0 / weightp=2 / keyint=240 / keyint_min=24 / scenecut=40 / intra_refresh=0 / rc=2pass / mbtree=0 / bitrate=2348 / ratetol=1.0 / qcomp=0.60 / qpmin=0 / qpmax=69 / qpstep=4 / cplxblur=20.0 / qblur=0.5 / ip_ratio=1.40 / pb_ratio=1.30 / aq=1:1.00
Язык : Russian
Default : Да
Forced : Нет
Аудио
Идентификатор : 2
Формат : AC-3
Формат/Информация : Audio Coding 3
Расширение режима : CM (complete main)
Параметр Endianness формата : Big
Идентификатор кодека : A_AC3
Длительность : 1 ч. 38 м.
Вид битрейта : Постоянный
Битрейт : 384 Кбит/сек
Каналы : 6 каналов
Расположение каналов : Front: L C R, Side: L R, LFE
Частота : 48,0 КГц
Частота кадров : 31,250 кадров/сек (1536 spf)
Метод сжатия : С потерями
Размер потока : 271 Мбайт (14%)
Заголовок : iTunes
Язык : Russian
Default : Да
Forced : Нет
Меню
00:00:00.000 : en:Глава 1
00:05:41.416 : en:Глава 2
00:10:54.499 : en:Глава 3
00:16:25.207 : en:Глава 4
00:21:54.582 : en:Глава 5
00:27:59.415 : en:Глава 6
00:33:46.206 : en:Глава 7
00:39:19.747 : en:Глава 8
00:44:42.580 : en:Глава 9
00:51:07.496 : en:Глава 10
00:56:24.496 : en:Глава 11
01:02:09.329 : en:Глава 12
01:07:27.620 : en:Глава 13
01:13:03.953 : en:Глава 14
01:18:55.036 : en:Глава 15
01:25:27.869 : en:Глава 16
01:31:48.119 : en:Глава 17

Скриншоты

[Цитировать]



Показать сообщения:    

Текущее время: 11-Дек 05:10

Часовой пояс: UTC + 3


Вы не можете начинать темы
Вы не можете отвечать на сообщения
Вы не можете редактировать свои сообщения
Вы не можете удалять свои сообщения
Вы не можете голосовать в опросах
Вы не можете прикреплять файлы к сообщениям
Вы не можете скачивать файлы

!ВНИМАНИЕ!
Сайт не предоставляет электронные версии произведений, а занимается лишь коллекционированием и каталогизацией ссылок, присылаемых и публикуемых на форуме нашими читателями. Если вы являетесь правообладателем какого-либо представленного материала и не желаете, чтобы ссылка на него находилась в нашем каталоге, свяжитесь с нами, и мы незамедлительно удалим ее. Файлы для обмена на трекере предоставлены пользователями сайта, и администрация не несет ответственности за их содержание. Просьба не заливать файлы, защищенные авторскими правами, а также файлы нелегального содержания!