[ Сегодня идет свободное скачивание без начисления Download ]


Статистика раздачи
Качаю: [ 4 ]
Скачал: [ 14 ]
 
   
 
Top  
 
 
LoftSchool | Комплексное обучение разработке на Android (2015) PCRec Автор (режиссер): LoftSchool
Жанр: Android, Java, Git, SQLite и т.д.
Описание:
ЧЕМУ ВЫ НАУЧИТЕСЬ, ПРОЙДЯ КУРС:
Создавать современные мобильные Android-приложения используя лучшие передовые инструменты и технологии.
Быстро реализовывать свою идею и запускать новый проект в срок от 7 до 21 дня.
Использовать необходимые инструменты Android SDK для построения приложений. Все, что нужно для создания полноценного приложения.
Работать с базами данных. Использовать ORM-решения, такие как DBFlow и ActiveAndroid.
Работать с сетевыми запросами с помощью популярной библиотеки Retrofit.
Работать с Canvas
Использовать dependency injection паттерн на практике
Работать с API социальных сетей ВК, FACEBOOK, INSTAGRAM и т.д.
Продолжительность: 29:50:47
Качество видео: PCRec
Видео: AVC/H.264, 1280x720, ~218 - 388 Kbps
Аудио: AAC, 2 ch, 192 Kbps, VBR

Дополнительная информация:

1. Открытие курса
2. Начало работы
3. Навигация
4. Интерфейс пользователя
5. Material Design
6. Activity
7. Базы данных
8. Поиск
9. Интернет
10. Аутентификация
11. Синхронизация
12. Более сложные интерфейсы
13. Анимации
14. Элементы графики
15. Нотификация
16. Публикация приложения
17. Закрытие курса

Mediainfo:

Общее
Полное имя                               : C:\torrent\Android_04_2015\Android_04_2015\00 - Открытие курса\Запись вебинара.mp4
Формат                                   : MPEG-4
Профиль формата                          : Base Media
Идентификатор кодека                     : isom (isom/iso2/avc1/mp41)
Размер файла                             : 72,9 Мбайт
Продолжительность                        : 33 м.
Общий поток                              : 302 Кбит/сек
Программа кодирования                    : Lavf55.19.104
Видео
Идентификатор                            : 1
Формат                                   : AVC
Формат/Информация                        : Advanced Video Codec
Профиль формата                          : Baseline@L3.1
Параметр CABAC формата                   : Нет
Параметр ReFrames формата                : 1 кадр
Идентификатор кодека                     : avc1
Идентификатор кодека/Информация          : Advanced Video Coding
Продолжительность                        : 33 м.
Битрейт                                  : 218 Кбит/сек
Ширина                                   : 1280 пикселей
Высота                                   : 720 пикселей
Соотношение сторон                       : 16:9
Режим частоты кадров                     : Переменный
Частота кадров                           : 25,000 кадров/сек
Минимальная частота кадров               : 1,471 кадр/сек
Максимальная частота кадров              : 25,000 кадров/сек
Цветовое пространство                    : YUV
Субдискретизация насыщенности            : 4:2:0
Битовая глубина                          : 8 бит
Тип развёртки                            : Прогрессивная
Бит/(Пиксели*Кадры)                      : 0.009
Размер потока                            : 52,6 Мбайт (72%)
Библиотека кодирования                   : x264 core 142 r2479 dd79a61
Настройки программы                      : cabac=0 / ref=1 / deblock=1:0:0 / analyse=0x1:0x111 / me=hex / subme=2 / psy=1 / psy_rd=1.00:0.00 / mixed_ref=0 / me_range=16 / chroma_me=1 / trellis=0 / 8x8dct=0 / cqm=0 / deadzone=21,11 / fast_pskip=1 / chroma_qp_offset=0 / threads=2 / lookahead_threads=2 / sliced_threads=1 / slices=2 / nr=0 / decimate=1 / interlaced=0 / bluray_compat=0 / constrained_intra=0 / bframes=0 / weightp=0 / keyint=125 / keyint_min=5 / scenecut=40 / intra_refresh=0 / rc=crf / mbtree=0 / crf=22.0 / qcomp=0.70 / qpmin=0 / qpmax=69 / qpstep=4 / ip_ratio=1.40 / aq=1:1.00
Цветовой диапазон                        : Full
Аудио
Идентификатор                            : 2
Формат                                   : AAC
Формат/Информация                        : Advanced Audio Codec
Профиль формата                          : LC
Идентификатор кодека                     : 40
Продолжительность                        : 33 м.
Вид битрейта                             : Постоянный
Битрейт                                  : 79,6 Кбит/сек
Каналы                                   : 2 канала
Channel(s)_Original                      : 1 канал
Расположение каналов                     : Front: C
Частота                                  : 48,0 КГц
Частота кадров                           : 46,875 кадров/сек (1024 spf)
Метод сжатия                             : С потерями
Размер потока                            : 19,2 Мбайт (26%)
Default                                  : Да
Alternate group                          : 1
Общее
Полное имя                               : C:\torrent\Android_04_2015\Android_04_2015\00 - Открытие курса\Сопутствующие уроки_22.04.2015\Урок 1. Разработка приложений под Android Вступление..mp4
Формат                                   : MPEG-4
Профиль формата                          : Base Media / Version 2
Идентификатор кодека                     : mp42 (isom/mp42)
Размер файла                             : 39,1 Мбайт
Продолжительность                        : 9 м. 23 с.
Режим общего битрейта                    : Переменный
Общий поток                              : 582 Кбит/сек
Дата кодирования                         : UTC 2015-01-23 07:10:34
Дата пометки                             : UTC 2015-01-23 07:10:34
gsst                                     : 0
gstd                                     : 563873
gssd                                     : B0AFCE81CMH1429590854143564
gshh                                     : r16---sn-aigllnsz.googlevideo.com
Видео
Идентификатор                            : 1
Формат                                   : AVC
Формат/Информация                        : Advanced Video Codec
Профиль формата                          : High@L3.1
Параметр CABAC формата                   : Да
Параметр ReFrames формата                : 1 кадр
Параметр GOP формата                     : M=1, N=60
Идентификатор кодека                     : avc1
Идентификатор кодека/Информация          : Advanced Video Coding
Продолжительность                        : 9 м. 23 с.
Битрейт                                  : 388 Кбит/сек
Максимальный битрейт                     : 3337 Кбит/сек
Ширина                                   : 1278 пикселей
Высота                                   : 720 пикселей
Соотношение сторон                       : 16:9
Режим частоты кадров                     : Постоянный
Частота кадров                           : 30,000 кадров/сек
Цветовое пространство                    : YUV
Субдискретизация насыщенности            : 4:2:0
Битовая глубина                          : 8 бит
Тип развёртки                            : Прогрессивная
Бит/(Пиксели*Кадры)                      : 0.014
Размер потока                            : 26,1 Мбайт (67%)
Дата пометки                             : UTC 2015-01-23 07:10:43
Аудио
Идентификатор                            : 2
Формат                                   : AAC
Формат/Информация                        : Advanced Audio Codec
Профиль формата                          : LC
Идентификатор кодека                     : 40
Продолжительность                        : 9 м. 23 с.
Вид битрейта                             : Переменный
Битрейт                                  : 192 Кбит/сек
Максимальный битрейт                     : 203 Кбит/сек
Каналы                                   : 2 канала
Расположение каналов                     : Front: L R
Частота                                  : 44,1 КГц
Частота кадров                           : 43,066 кадра/сек (1024 spf)
Метод сжатия                             : С потерями
Размер потока                            : 12,9 Мбайт (33%)
Заголовок                                : IsoMedia File Produced by Google, 5-11-2011
Дата кодирования                         : UTC 2015-01-23 07:10:38
Дата пометки                             : UTC 2015-01-23 07:10:43
Общее
Полное имя                               : C:\torrent\Android_04_2015\Android_04_2015\00 - Открытие курса\Сопутствующие уроки_22.04.2015\Урок 2. Разработка приложений под Android. Первое приложение..mp4
Формат                                   : MPEG-4
Профиль формата                          : Base Media / Version 2
Идентификатор кодека                     : mp42 (isom/mp42)
Размер файла                             : 39,2 Мбайт
Продолжительность                        : 11 м.
Режим общего битрейта                    : Переменный
Общий поток                              : 486 Кбит/сек
Дата кодирования                         : UTC 2015-01-31 06:01:35
Дата пометки                             : UTC 2015-01-31 06:01:35
gsst                                     : 0
gstd                                     : 676095
gssd                                     : B0AFCED63MH1429590883476103
gshh                                     : r10---sn-h5q7dn7l.googlevideo.com
Видео
Идентификатор                            : 1
Формат                                   : AVC
Формат/Информация                        : Advanced Video Codec
Профиль формата                          : High@L3.1
Параметр CABAC формата                   : Да
Параметр ReFrames формата                : 1 кадр
Параметр GOP формата                     : M=1, N=60
Идентификатор кодека                     : avc1
Идентификатор кодека/Информация          : Advanced Video Coding
Продолжительность                        : 11 м.
Битрейт                                  : 292 Кбит/сек
Максимальный битрейт                     : 2077 Кбит/сек
Ширина                                   : 1278 пикселей
Высота                                   : 720 пикселей
Соотношение сторон                       : 16:9
Режим частоты кадров                     : Постоянный
Частота кадров                           : 30,000 кадров/сек
Цветовое пространство                    : YUV
Субдискретизация насыщенности            : 4:2:0
Битовая глубина                          : 8 бит
Тип развёртки                            : Прогрессивная
Бит/(Пиксели*Кадры)                      : 0.011
Размер потока                            : 23,5 Мбайт (60%)
Дата пометки                             : UTC 2015-01-31 06:01:39
Аудио
Идентификатор                            : 2
Формат                                   : AAC
Формат/Информация                        : Advanced Audio Codec
Профиль формата                          : LC
Идентификатор кодека                     : 40
Продолжительность                        : 11 м.
Вид битрейта                             : Переменный
Битрейт                                  : 192 Кбит/сек
Максимальный битрейт                     : 203 Кбит/сек
Каналы                                   : 2 канала
Расположение каналов                     : Front: L R
Частота                                  : 44,1 КГц
Частота кадров                           : 43,066 кадра/сек (1024 spf)
Метод сжатия                             : С потерями
Размер потока                            : 15,5 Мбайт (39%)
Заголовок                                : IsoMedia File Produced by Google, 5-11-2011
Дата кодирования                         : UTC 2015-01-31 06:01:37
Дата пометки                             : UTC 2015-01-31 06:01:39
Общее
Полное имя                               : C:\torrent\Android_04_2015\Android_04_2015\01 - Начало работы\1. Инструменты разработчика. ДЗ.pdf
Формат                                   : PDF
Версия формата                           : 1.4
Размер файла                             : 48,7 Кбайт
Текст
Формат                                   : PDF
Общее
Полное имя                               : C:\torrent\Android_04_2015\Android_04_2015\01 - Начало работы\Запись вебинара - начало работы.mp4
Формат                                   : MPEG-4
Профиль формата                          : Base Media
Идентификатор кодека                     : isom (isom/iso2/avc1/mp41)
Размер файла                             : 237 Мбайт
Продолжительность                        : 1 ч. 28 м.
Общий поток                              : 372 Кбит/сек
Программа кодирования                    : Lavf55.19.104
Видео
Идентификатор                            : 1
Формат                                   : AVC
Формат/Информация                        : Advanced Video Codec
Профиль формата                          : Baseline@L3.1
Параметр CABAC формата                   : Нет
Параметр ReFrames формата                : 1 кадр
Параметр GOP формата                     : M=1, N=125
Идентификатор кодека                     : avc1
Идентификатор кодека/Информация          : Advanced Video Coding
Продолжительность                        : 1 ч. 28 м.
Битрейт                                  : 284 Кбит/сек
Ширина                                   : 1280 пикселей
Высота                                   : 720 пикселей
Соотношение сторон                       : 16:9
Режим частоты кадров                     : Переменный
Частота кадров                           : 25,000 кадров/сек
Минимальная частота кадров               : 1,471 кадр/сек
Максимальная частота кадров              : 25,000 кадров/сек
Цветовое пространство                    : YUV
Субдискретизация насыщенности            : 4:2:0
Битовая глубина                          : 8 бит
Тип развёртки                            : Прогрессивная
Бит/(Пиксели*Кадры)                      : 0.012
Размер потока                            : 180 Мбайт (76%)
Библиотека кодирования                   : x264 core 142 r2479 dd79a61
Настройки программы                      : cabac=0 / ref=1 / deblock=1:0:0 / analyse=0x1:0x111 / me=hex / subme=2 / psy=1 / psy_rd=1.00:0.00 / mixed_ref=0 / me_range=16 / chroma_me=1 / trellis=0 / 8x8dct=0 / cqm=0 / deadzone=21,11 / fast_pskip=1 / chroma_qp_offset=0 / threads=2 / lookahead_threads=2 / sliced_threads=1 / slices=2 / nr=0 / decimate=1 / interlaced=0 / bluray_compat=0 / constrained_intra=0 / bframes=0 / weightp=0 / keyint=125 / keyint_min=5 / scenecut=40 / intra_refresh=0 / rc=crf / mbtree=0 / crf=22.0 / qcomp=0.70 / qpmin=0 / qpmax=69 / qpstep=4 / ip_ratio=1.40 / aq=1:1.00
Цветовой диапазон                        : Full
Аудио
Идентификатор                            : 2
Формат                                   : AAC
Формат/Информация                        : Advanced Audio Codec
Профиль формата                          : LC
Идентификатор кодека                     : 40
Продолжительность                        : 1 ч. 28 м.
Вид битрейта                             : Постоянный
Битрейт                                  : 83,7 Кбит/сек
Каналы                                   : 2 канала
Channel(s)_Original                      : 1 канал
Расположение каналов                     : Front: C
Частота                                  : 48,0 КГц
Частота кадров                           : 46,875 кадров/сек (1024 spf)
Метод сжатия                             : С потерями
Размер потока                            : 53,2 Мбайт (22%)
Default                                  : Да
Alternate group                          : 1
Общее
Полное имя                               : C:\torrent\Android_04_2015\Android_04_2015\01 - Начало работы\Инструменты разработчика. методичка.pdf
Формат                                   : PDF
Версия формата                           : 1.4
Размер файла                             : 1,04 Мбайт
Текст
Формат                                   : PDF
Общее
Полное имя                               : C:\torrent\Android_04_2015\Android_04_2015\01 - Начало работы\Инструменты разработчика.pdf
Формат                                   : PDF
Версия формата                           : 1.4
Размер файла                             : 1,07 Мбайт

Скриншоты

[Цитировать]



Показать сообщения:    

Текущее время: 08-Дек 23:13

Часовой пояс: UTC + 3


Вы не можете начинать темы
Вы не можете отвечать на сообщения
Вы не можете редактировать свои сообщения
Вы не можете удалять свои сообщения
Вы не можете голосовать в опросах
Вы не можете прикреплять файлы к сообщениям
Вы не можете скачивать файлы

!ВНИМАНИЕ!
Сайт не предоставляет электронные версии произведений, а занимается лишь коллекционированием и каталогизацией ссылок, присылаемых и публикуемых на форуме нашими читателями. Если вы являетесь правообладателем какого-либо представленного материала и не желаете, чтобы ссылка на него находилась в нашем каталоге, свяжитесь с нами, и мы незамедлительно удалим ее. Файлы для обмена на трекере предоставлены пользователями сайта, и администрация не несет ответственности за их содержание. Просьба не заливать файлы, защищенные авторскими правами, а также файлы нелегального содержания!