[ Сегодня идет свободное скачивание без начисления Download ]


Статистика раздачи
Нет
 
   
 
Top  
 
 
Приключения Тинтина: Тайна Единорога / The Adventures of Tintin: The Secret of the Unicorn
«This year, discover how far adventure will take you.»
[gposter=right]http://torrentsclub.org/pictures/04377667c4819fb8fc...32.jpg[/gposter]
Год выпуска: 2011
Страна: США, Новая Зеландия
Производство:Amblin Entertainment, Columbia Pictures, Nickelodeon Movies
Жанр: мультфильм, боевик, детектив, приключения, семейный
Режиссер: Стивен Спилберг / Steven Spielberg
В ролях:
Джейми Белл (Tintin, озвучка), Энди Серкис (Captain Haddock / Sir Francis Haddock, озвучка), Дэниэл Крэйг (Rackham / Sakharine, озвучка), Саймон Пегг (Thompson, озвучка), Ник Фрост (Thomson, озвучка), Дэниэл Мейс (Allan / Pirate Flunky #1, озвучка), Гад Эльмалех (Ben Salaad, озвучка), Тоби Джонс (Silk, озвучка), Джо Старр (Barnaby, озвучка), Енн Рейтел (Nestor / Mr. Crabtree, озвучка), Маккензи Крук (Tom / Pirate Flunky #2, озвучка), Тони Карран (Lieutenant Delcourt, озвучка)
Дублёры: Филипп Бледный (Tintin), Сергей Чихачев (Captain Haddock / Sir Francis Haddock), Никита Прозоровский (Rackham / Sakharine), Александр Новиков (Thompson), Андрей Чубченко (Thomson), Вячеслав Баранов ((Mr. Crabtree )), Вадим Медведев (Allan / Pirate Flunky #1), Константин Карасик (Ben Salaad), Олег Форостенко (Silk), Михаил Георгиу (Barnaby), Александр Хотченков (Nestor), Даниил Щебланов (Tom / Pirate Flunky #2)
Перевод: профессиональный (полное дублирование) + оригинал
Субтитры: Russian (Blu-ray CEE), English
Описание: Главный герой - молодой газетный репортёр Тинтин. Благодаря своей профессии он путешествует по всему миру и становится участником увлекательных приключений.

Качество: BDRip 720p
Продолжительность: 01:46:51
Формат: MKV
Видео кодек: x264
Аудио кодек: AC3 / DTS
Видео: 1280x544 (2.35:1) at 23.976 fps, x264@L4.1, CRF, (DXVA), ~4960 kbps avg, 0,295 bit/pixel
Аудио#1: Russian; 48 kHz, AC3, 3/2 (L,C,R,l,r) + LFE ch, ~640 kbps avg |Дубляж, Blu-ray CEE|
Аудио#2: Ukrainian;48 kHz, AC3, 3/2 (L,C,R,l,r) + LFE ch, ~640 kbps avg |Дубляж, Blu-ray CEE|
Аудио#3: English; 48 kHz, DTS, 3/2 (L,C,R,l,r) + LFE ch, ~1536.00 kbps avg

Media Info

General
Unique ID : 244645689886001578081793168725161532740 (0xB80D0BC61C38D5279BD2FCFA3B17DD44)
Complete name : /Torrents/home/crazygreat/data/The.Adventures.of.Tintin.2011.720p.BluRay.Rus.Ukr.Eng.HDCLUB.mkv
Format : Matroska
Format version : Version 2
File size : 5.87 GiB
Duration : 1h 46mn
Overall bit rate : 7 864 Kbps
Movie name : The Adventures of Tintin: The Secret of the Unicorn (2011) - Release for HDCLUB
Encoded date : UTC 2012-03-21 22:20:24
Writing application : mkvmerge v3.4.0 ('Rapunzel') built on May 15 2010 09:38:20
Writing library : libebml v0.8.0 + libmatroska v0.9.0
Video
ID : 1
Format : AVC
Format/Info : Advanced Video Codec
Format profile : High@L4.1
Format settings, CABAC : Yes
Format settings, ReFrames : 12 frames
Codec ID : V_MPEG4/ISO/AVC
Duration : 1h 46mn
Bit rate : 4 917 Kbps
Width : 1 280 pixels
Height : 544 pixels
Display aspect ratio : 2.35:1
Frame rate : 23.976 fps
Color space : YUV
Chroma subsampling : 4:2:0
Bit depth : 8 bits
Scan type : Progressive
Bits/(Pixel*Frame) : 0.295
Stream size : 3.67 GiB (63%)
Title : Release for HDCLUB
Writing library : x264 core 120 r2164 da19765
Encoding settings : cabac=1 / ref=12 / deblock=1:-3:-3 / analyse=0x3:0x113 / me=tesa / subme=11 / psy=1 / psy_rd=0.80:0.00 / mixed_ref=1 / me_range=24 / chroma_me=1 / trellis=2 / 8x8dct=1 / cqm=0 / deadzone=21,11 / fast_pskip=0 / chroma_qp_offset=-2 / threads=6 / sliced_threads=0 / nr=0 / decimate=0 / interlaced=0 / bluray_compat=0 / constrained_intra=0 / bframes=7 / b_pyramid=2 / b_adapt=2 / b_bias=0 / direct=3 / weightb=1 / open_gop=0 / weightp=2 / keyint=250 / keyint_min=23 / scenecut=40 / intra_refresh=0 / rc_lookahead=60 / rc=crf / mbtree=0 / crf=15.5 / qcomp=0.60 / qpmin=0 / qpmax=69 / qpstep=4 / vbv_maxrate=38000 / vbv_bufsize=30000 / crf_max=0.0 / nal_hrd=none / ip_ratio=1.40 / pb_ratio=1.30 / aq=1:0.90
Language : English
Default : Yes
Forced : No
Color primaries : BT.709-5, BT.1361, IEC 61966-2-4, SMPTE RP177
Transfer characteristics : BT.709-5, BT.1361
Matrix coefficients : BT.709-5, BT.1361, IEC 61966-2-4 709, SMPTE RP177
Audio #1
ID : 2
Format : AC-3
Format/Info : Audio Coding 3
Mode extension : CM (complete main)
Codec ID : A_AC3
Duration : 1h 46mn
Bit rate mode : Constant
Bit rate : 640 Kbps
Channel(s) : 6 channels
Channel positions : Front: L C R, Side: L R, LFE
Sampling rate : 48.0 KHz
Bit depth : 16 bits
Compression mode : Lossy
Stream size : 489 MiB (8%)
Title : AC3 5.1 640 kbps DUB, Blu-ray CEE
Language : Russian
Default : Yes
Forced : No
Audio #2
ID : 3
Format : AC-3
Format/Info : Audio Coding 3
Mode extension : CM (complete main)
Codec ID : A_AC3
Duration : 1h 46mn
Bit rate mode : Constant
Bit rate : 640 Kbps
Channel(s) : 6 channels
Channel positions : Front: L C R, Side: L R, LFE
Sampling rate : 48.0 KHz
Bit depth : 16 bits
Compression mode : Lossy
Stream size : 489 MiB (8%)
Title : AC3 5.1 640 kbps DUB, Blu-ray CEE
Language : Ukrainian
Default : No
Forced : No
Audio #3
ID : 4
Format : DTS
Format/Info : Digital Theater Systems
Codec ID : A_DTS
Duration : 1h 46mn
Bit rate mode : Constant
Bit rate : 1 510 Kbps
Channel(s) : 6 channels
Channel positions : Front: L C R, Side: L R, LFE
Sampling rate : 48.0 KHz
Bit depth : 16 bits
Compression mode : Lossy
Stream size : 1.13 GiB (19%)
Title : DTS 5.1 1536 kbps
Language : English
Default : No
Forced : No
Text #1
ID : 5
Format : UTF-8
Codec ID : S_TEXT/UTF8
Codec ID/Info : UTF-8 Plain Text
Language : Russian
Default : No
Forced : No
Text #2
ID : 6
Format : UTF-8
Codec ID : S_TEXT/UTF8
Codec ID/Info : UTF-8 Plain Text
Language : English
Default : No
Forced : No
Menu
00:00:00.000 : en:Chapter 01
00:05:39.297 : en:Chapter 02
00:12:12.315 : en:Chapter 03
00:17:11.364 : en:Chapter 04
00:25:36.869 : en:Chapter 05
00:32:37.581 : en:Chapter 06
00:37:55.315 : en:Chapter 07
00:42:29.839 : en:Chapter 08
00:50:52.508 : en:Chapter 09
00:56:27.217 : en:Chapter 10
01:02:19.611 : en:Chapter 11
01:11:58.981 : en:Chapter 12
01:20:03.966 : en:Chapter 13
01:27:30.996 : en:Chapter 14
01:34:12.814 : en:Chapter 15
01:40:30.483 : en:Chapter 16
  • Сохранены оригинальные чаптеры как на Blu-ray.
  • The source had some banding and blocking, so debanding filter was applied.
РАЗДАЧА ОТ:

[Цитировать]



Показать сообщения:    

Текущее время: 09-Дек 10:46

Часовой пояс: UTC + 3


Вы не можете начинать темы
Вы не можете отвечать на сообщения
Вы не можете редактировать свои сообщения
Вы не можете удалять свои сообщения
Вы не можете голосовать в опросах
Вы не можете прикреплять файлы к сообщениям
Вы не можете скачивать файлы

!ВНИМАНИЕ!
Сайт не предоставляет электронные версии произведений, а занимается лишь коллекционированием и каталогизацией ссылок, присылаемых и публикуемых на форуме нашими читателями. Если вы являетесь правообладателем какого-либо представленного материала и не желаете, чтобы ссылка на него находилась в нашем каталоге, свяжитесь с нами, и мы незамедлительно удалим ее. Файлы для обмена на трекере предоставлены пользователями сайта, и администрация не несет ответственности за их содержание. Просьба не заливать файлы, защищенные авторскими правами, а также файлы нелегального содержания!