[ Сегодня идет свободное скачивание без начисления Download ]


Статистика раздачи
Скачал: [ 4 ]
 
   
 
Top  
 
 
Правильный деплой приложений на PHP (2015) PCRec 720p Автор (режиссер): Альберт Степанцев
Жанр: PHP, программирование
Описание:
Не секрет, что работа программиста не заканчивается написанием кода. Написанный код нужно довести до "продакшна", то есть выложить на боевой сервер и убедиться, что он работает. Как это сделать автоматически и без затрат своего времени? Обо всём этом вы узнаете из нашего вебинара. Мы наглядно и просто покажем и расскажем - как перестать волноваться о деплое своих сайтов и перестать тратить время на то, что можно легко и просто автоматизировать.
Продолжительность: 01:55:15
Качество видео: PCRec
Видео: AVC/H.264, 1280x720, ~548 Kbps
Аудио: AAC, 2 ch, 192 Kbps, VBR

В программе вебинара:

Почему протокол FTP мёртв?
Почему всё должно быть в системе контроля версий?
Как правильно "выкатывать сайты"?
Автоматизация сборки сайтов с помощью TeamCity
Использование сценариев сборки на phing
Автоматическое создание тестовых стендов для вашего проекта

Mediainfo:

Общее
Полное имя                               : C:\torrent\Правильный деплой приложений на PHP 2.0\Правильный деплой приложений на PHP_2.0.mp4
Формат                                   : MPEG-4
Профиль формата                          : Base Media / Version 2
Идентификатор кодека                     : mp42 (isom/mp42)
Размер файла                             : 612 Мбайт
Продолжительность                        : 1 ч. 55 м.
Режим общего битрейта                    : Переменный
Общий поток                              : 743 Кбит/сек
Дата кодирования                         : UTC 2015-09-29 22:52:34
Дата пометки                             : UTC 2015-09-29 22:52:34
gsst                                     : 0
gstd                                     : 6916016
gssd                                     : B4A7DD6A6HM1443617171442202
gshh                                     : r6---sn-p5qlsu7d.googlevideo.com
Видео
Идентификатор                            : 1
Формат                                   : AVC
Формат/Информация                        : Advanced Video Codec
Профиль формата                          : High@L3.1
Параметр CABAC формата                   : Да
Параметр ReFrames формата                : 1 кадр
Параметр GOP формата                     : M=1, N=60
Идентификатор кодека                     : avc1
Идентификатор кодека/Информация          : Advanced Video Coding
Продолжительность                        : 1 ч. 55 м.
Битрейт                                  : 548 Кбит/сек
Максимальный битрейт                     : 2967 Кбит/сек
Ширина                                   : 1280 пикселей
Высота                                   : 720 пикселей
Соотношение сторон                       : 16:9
Режим частоты кадров                     : Постоянный
Частота кадров                           : 30,000 кадров/сек
Цветовое пространство                    : YUV
Субдискретизация насыщенности            : 4:2:0
Битовая глубина                          : 8 бит
Тип развёртки                            : Прогрессивная
Бит/(Пиксели*Кадры)                      : 0.020
Размер потока                            : 452 Мбайт (74%)
Дата пометки                             : UTC 2015-09-29 22:53:48
Аудио
Идентификатор                            : 2
Формат                                   : AAC
Формат/Информация                        : Advanced Audio Codec
Профиль формата                          : LC
Идентификатор кодека                     : 40
Продолжительность                        : 1 ч. 55 м.
Вид битрейта                             : Переменный
Битрейт                                  : 192 Кбит/сек
Максимальный битрейт                     : 202 Кбит/сек
Каналы                                   : 2 канала
Расположение каналов                     : Front: L R
Частота                                  : 44,1 КГц
Частота кадров                           : 43,066 кадра/сек (1024 spf)
Метод сжатия                             : С потерями
Размер потока                            : 158 Мбайт (26%)
Заголовок                                : IsoMedia File Produced by Google, 5-11-2011
Дата кодирования                         : UTC 2015-09-29 22:53:24
Дата пометки                             : UTC 2015-09-29 22:53:48

Скриншоты

[Цитировать]



Показать сообщения:    

Текущее время: 02-Дек 21:02

Часовой пояс: UTC + 3


Вы не можете начинать темы
Вы не можете отвечать на сообщения
Вы не можете редактировать свои сообщения
Вы не можете удалять свои сообщения
Вы не можете голосовать в опросах
Вы не можете прикреплять файлы к сообщениям
Вы не можете скачивать файлы

!ВНИМАНИЕ!
Сайт не предоставляет электронные версии произведений, а занимается лишь коллекционированием и каталогизацией ссылок, присылаемых и публикуемых на форуме нашими читателями. Если вы являетесь правообладателем какого-либо представленного материала и не желаете, чтобы ссылка на него находилась в нашем каталоге, свяжитесь с нами, и мы незамедлительно удалим ее. Файлы для обмена на трекере предоставлены пользователями сайта, и администрация не несет ответственности за их содержание. Просьба не заливать файлы, защищенные авторскими правами, а также файлы нелегального содержания!