[ Сегодня идет свободное скачивание без начисления Download ]


Статистика раздачи
Качаю: [ 1 ]
Скачал: [ 6 ]
 
   
 
Top  
 
 
Git для профессионалов (2015) PCRec Автор (режиссер): Альберт Степанцев
Жанр: Git, программирование
Описание:
Интенсив затрагивает интересы: Веб-разработка, Backend, PHP, Frontend, HTML+CSS, JavaScript, Я - начинающий!, Мобильная разработка, Android, iOS, DevOps, Python
Продолжительность: 05:34:35
Качество видео: PCRec
Видео: AVC/H.264, 1280x684, ~244 - 487 Kbps
Аудио: AAC, 2 ch, 126 - 192 Kbps, VBR

Программа курса:

1. Введение в Git
Что такое Git? Это система контроля версий. Попробуем понять это определение:
— как установить и настроить Git?
— что такое контроль версий?
— как он реализован в Git?
— что такое репозиторий?
— три состояния файлов, фиксация изменений
— лог изменений, хэши коммитов, понятие состояния репозитория
— использование git diff
Простые наглядные примеры позволят вам понять, как устроен Git, и вы поймете — как легко и просто им пользоваться!
2. Git и распределенность
Мы узнали, что такое Git. Но почему все-таки это распределенная или, как еще говорят, децентрализованная система? Узнаем на уроке!
— понятие удаленного репозитория
— настройка связи между репозиториями
— команды push и pull
— команда fetch
Кроме того мы научимся пользоваться сервисом GitHub и создадим на нем учебный проект
3. Ветвление в Git
Механизм ветвления — пожалуй, самое интересное, что есть в Git. Благодаря тому, что создание и слияние веток являются "дешевыми" операциями, Git и стал столь популярной системой контроля версий.
— что такое "ветка"? как ее создать?
— слияние веток, понятие конфликта
— кратко о способах слияния
— локальные и удаленные ветки
4. Профессиональная работа с Git
Теории у нас достаточно. Теперь поговорим об инструментах, используемых на практике:
— что такое git flow? когда стоит применять сложные workflow?
— "аварийные инструменты" в git, отмена изменений, rebase
— подмодули
— использование тегов
— git stash
— git в IDE компании JetBrains

Mediainfo:

Общее
Полное имя                               : C:\torrent\Git dlja professionalov - 2015\1 урок  2016-02-01.mp4
Формат                                   : MPEG-4
Профиль формата                          : Base Media / Version 2
Идентификатор кодека                     : mp42 (mp42/isom)
Размер файла                             : 394 Мбайт
Продолжительность                        : 1 ч. 20 м.
Режим общего битрейта                    : Переменный
Общий поток                              : 681 Кбит/сек
Видео
Идентификатор                            : 1
Формат                                   : AVC
Формат/Информация                        : Advanced Video Codec
Профиль формата                          : [email protected]
Параметр CABAC формата                   : Да
Параметр ReFrames формата                : 1 кадр
Параметр GOP формата                     : M=1, N=60
Идентификатор кодека                     : avc1
Идентификатор кодека/Информация          : Advanced Video Coding
Продолжительность                        : 1 ч. 20 м.
Продолжительность оригинала              : 1 ч. 20 м.
Битрейт                                  : 485 Кбит/сек
Ширина                                   : 1280 пикселей
Высота                                   : 684 пикселя
Соотношение сторон                       : 1,85:1
Режим частоты кадров                     : Переменный
Частота кадров                           : 15,000 кадров/сек
Минимальная частота кадров               : 15,000 кадров/сек
Максимальная частота кадров              : 15,003 кадров/сек
Цветовое пространство                    : YUV
Субдискретизация насыщенности            : 4:2:0
Битовая глубина                          : 8 бит
Тип развёртки                            : Прогрессивная
Бит/(Пиксели*Кадры)                      : 0.037
Размер потока                            : 281 Мбайт (71%)
Размер потока оригинала                  : 281 Мбайт (71%)
Язык                                     : English
mdhd_Duration                            : 4856329
Аудио
Идентификатор                            : 2
Формат                                   : AAC
Формат/Информация                        : Advanced Audio Codec
Профиль формата                          : LC
Идентификатор кодека                     : 40
Продолжительность                        : 1 ч. 20 м.
Продолжительность оригинала              : 1 ч. 20 м.
Вид битрейта                             : Переменный
Битрейт                                  : 192 Кбит/сек
Каналы                                   : 2 канала
Расположение каналов                     : Front: L R
Частота                                  : 44,1 КГц
Частота кадров                           : 43,066 кадра/сек (1024 spf)
Метод сжатия                             : С потерями
Размер потока                            : 111 Мбайт (28%)
Размер потока оригинала                  : 111 Мбайт (28%)
Язык                                     : English
mdhd_Duration                            : 4856263
Общее
Полное имя                               : C:\torrent\Git dlja professionalov - 2015\1.txt
Размер файла                             : 1,95 Кбайт
Общее
Полное имя                               : C:\torrent\Git dlja professionalov - 2015\2 урок 2016-02-04.mp4
Формат                                   : MPEG-4
Профиль формата                          : Base Media / Version 2
Идентификатор кодека                     : mp42 (mp42/isom)
Размер файла                             : 360 Мбайт
Продолжительность                        : 1 ч. 14 м.
Режим общего битрейта                    : Переменный
Общий поток                              : 677 Кбит/сек
Видео
Идентификатор                            : 1
Формат                                   : AVC
Формат/Информация                        : Advanced Video Codec
Профиль формата                          : [email protected]
Параметр CABAC формата                   : Да
Параметр ReFrames формата                : 1 кадр
Параметр GOP формата                     : M=1, N=60
Идентификатор кодека                     : avc1
Идентификатор кодека/Информация          : Advanced Video Coding
Продолжительность                        : 1 ч. 14 м.
Продолжительность оригинала              : 1 ч. 14 м.
Битрейт                                  : 482 Кбит/сек
Ширина                                   : 1280 пикселей
Высота                                   : 684 пикселя
Соотношение сторон                       : 1,85:1
Режим частоты кадров                     : Переменный
Частота кадров                           : 15,000 кадров/сек
Минимальная частота кадров               : 15,000 кадров/сек
Максимальная частота кадров              : 15,003 кадров/сек
Цветовое пространство                    : YUV
Субдискретизация насыщенности            : 4:2:0
Битовая глубина                          : 8 бит
Тип развёртки                            : Прогрессивная
Бит/(Пиксели*Кадры)                      : 0.037
Размер потока                            : 256 Мбайт (71%)
Размер потока оригинала                  : 256 Мбайт (71%)
Язык                                     : English
mdhd_Duration                            : 4453196
Аудио
Идентификатор                            : 2
Формат                                   : AAC
Формат/Информация                        : Advanced Audio Codec
Профиль формата                          : LC
Идентификатор кодека                     : 40
Продолжительность                        : 1 ч. 14 м.
Продолжительность оригинала              : 1 ч. 14 м.
Вид битрейта                             : Переменный
Битрейт                                  : 192 Кбит/сек
Каналы                                   : 2 канала
Расположение каналов                     : Front: L R
Частота                                  : 44,1 КГц
Частота кадров                           : 43,066 кадра/сек (1024 spf)
Метод сжатия                             : С потерями
Размер потока                            : 102 Мбайт (28%)
Размер потока оригинала                  : 102 Мбайт (28%)
Язык                                     : English
mdhd_Duration                            : 4453112
Общее
Полное имя                               : C:\torrent\Git dlja professionalov - 2015\2.txt
Размер файла                             : 1,27 Кбайт
Общее
Полное имя                               : C:\torrent\Git dlja professionalov - 2015\3 урок 2016-02-08.mp4
Формат                                   : MPEG-4
Профиль формата                          : Base Media / Version 2
Идентификатор кодека                     : mp42 (mp42/isom)
Размер файла                             : 439 Мбайт
Продолжительность                        : 1 ч. 29 м.
Режим общего битрейта                    : Переменный
Общий поток                              : 682 Кбит/сек
Видео
Идентификатор                            : 1
Формат                                   : AVC
Формат/Информация                        : Advanced Video Codec
Профиль формата                          : [email protected]
Параметр CABAC формата                   : Да
Параметр ReFrames формата                : 1 кадр
Параметр GOP формата                     : M=1, N=60
Идентификатор кодека                     : avc1
Идентификатор кодека/Информация          : Advanced Video Coding
Продолжительность                        : 1 ч. 29 м.
Продолжительность оригинала              : 1 ч. 29 м.
Битрейт                                  : 487 Кбит/сек
Ширина                                   : 1280 пикселей
Высота                                   : 684 пикселя
Соотношение сторон                       : 1,85:1
Режим частоты кадров                     : Переменный
Частота кадров                           : 15,000 кадров/сек
Минимальная частота кадров               : 15,000 кадров/сек
Максимальная частота кадров              : 15,003 кадров/сек
Цветовое пространство                    : YUV
Субдискретизация насыщенности            : 4:2:0
Битовая глубина                          : 8 бит
Тип развёртки                            : Прогрессивная
Бит/(Пиксели*Кадры)                      : 0.037
Размер потока                            : 313 Мбайт (71%)
Размер потока оригинала                  : 313 Мбайт (71%)
Язык                                     : English
mdhd_Duration                            : 5394861
Аудио
Идентификатор                            : 2
Формат                                   : AAC
Формат/Информация                        : Advanced Audio Codec
Профиль формата                          : LC
Идентификатор кодека                     : 40
Продолжительность                        : 1 ч. 29 м.
Продолжительность оригинала              : 1 ч. 29 м.
Вид битрейта                             : Переменный
Битрейт                                  : 192 Кбит/сек
Каналы                                   : 2 канала
Расположение каналов                     : Front: L R
Частота                                  : 44,1 КГц
Частота кадров                           : 43,066 кадра/сек (1024 spf)
Метод сжатия                             : С потерями
Размер потока                            : 123 Мбайт (28%)
Размер потока оригинала                  : 123 Мбайт (28%)
Язык                                     : English
mdhd_Duration                            : 5394828
Общее
Полное имя                               : C:\torrent\Git dlja professionalov - 2015\3.txt
Размер файла                             : 1,58 Кбайт
Общее
Полное имя                               : C:\torrent\Git dlja professionalov - 2015\4 урок 2016-02-11.mp4
Формат                                   : MPEG-4
Профиль формата                          : Base Media / Version 2
Идентификатор кодека                     : mp42 (mp42/isom)
Размер файла                             : 239 Мбайт
Продолжительность                        : 1 ч. 29 м.
Режим общего битрейта                    : Переменный
Общий поток                              : 373 Кбит/сек
Видео
Идентификатор                            : 1
Формат                                   : AVC
Формат/Информация                        : Advanced Video Codec
Профиль формата                          : [email protected]
Параметр CABAC формата                   : Да
Параметр ReFrames формата                : 1 кадр
Идентификатор кодека                     : avc1
Идентификатор кодека/Информация          : Advanced Video Coding
Продолжительность                        : 1 ч. 29 м.
Продолжительность оригинала              : 1 ч. 29 м.
Битрейт                                  : 244 Кбит/сек
Ширина                                   : 1280 пикселей
Высота                                   : 684 пикселя
Соотношение сторон                       : 1,85:1
Режим частоты кадров                     : Переменный
Частота кадров                           : 15,000 кадров/сек
Минимальная частота кадров               : 15,000 кадров/сек
Максимальная частота кадров              : 15,003 кадров/сек
Цветовое пространство                    : YUV
Субдискретизация насыщенности            : 4:2:0
Битовая глубина                          : 8 бит
Тип развёртки                            : Прогрессивная
Бит/(Пиксели*Кадры)                      : 0.019
Размер потока                            : 156 Мбайт (65%)
Размер потока оригинала                  : 156 Мбайт (65%)
Язык                                     : English
mdhd_Duration                            : 5372528
Аудио
Идентификатор                            : 2
Формат                                   : AAC
Формат/Информация                        : Advanced Audio Codec
Профиль формата                          : LC
Идентификатор кодека                     : 40
Продолжительность                        : 1 ч. 29 м.
Продолжительность оригинала              : 1 ч. 29 м.
Вид битрейта                             : Переменный
Битрейт                                  : 126 Кбит/сек
Каналы                                   : 2 канала
Расположение каналов                     : Front: L R
Частота                                  : 44,1 КГц
Частота кадров                           : 43,066 кадра/сек (1024 spf)
Метод сжатия                             : С потерями
Размер потока                            : 80,4 Мбайт (34%)
Размер потока оригинала                  : 80,4 Мбайт (34%)
Язык                                     : English
mdhd_Duration                            : 5372472
Общее
Полное имя                               : C:\torrent\Git dlja professionalov - 2015\4.txt
Размер файла                             : 399 байт
Общее
Полное имя                               : C:\torrent\Git dlja professionalov - 2015\Git dlja professionalov - 2015.torrent
Размер файла                             : 14,9 Кбайт
Общее
Полное имя                               : C:\torrent\Git dlja professionalov - 2015\git-01.pdf
Формат                                   : PDF
Версия формата                           : 1.6
Размер файла                             : 1,01 Мбайт
Текст
Формат                                   : PDF
Общее
Полное имя                               : C:\torrent\Git dlja professionalov - 2015\git-02.pdf
Формат                                   : PDF
Версия формата                           : 1.6
Размер файла                             : 849 Кбайт
Текст
Формат                                   : PDF
Общее
Полное имя                               : C:\torrent\Git dlja professionalov - 2015\git-03.pdf
Формат                                   : PDF
Версия формата                           : 1.5
Размер файла                             : 1,15 Мбайт
Текст
Формат                                   : PDF
Общее
Полное имя                               : C:\torrent\Git dlja professionalov - 2015\git-04.pdf
Формат                                   : PDF
Версия формата                           : 1.6
Размер файла                             : 1012 Кбайт
Текст
Формат                                   : PDF
Общее
Полное имя                               : C:\torrent\Git dlja professionalov - 2015\Методичка.txt
Размер файла                             : 30,0 байт

Скриншоты

[Цитировать]



Показать сообщения:    

Текущее время: 04-Дек 11:13

Часовой пояс: UTC + 3


Вы не можете начинать темы
Вы не можете отвечать на сообщения
Вы не можете редактировать свои сообщения
Вы не можете удалять свои сообщения
Вы не можете голосовать в опросах
Вы не можете прикреплять файлы к сообщениям
Вы не можете скачивать файлы

!ВНИМАНИЕ!
Сайт не предоставляет электронные версии произведений, а занимается лишь коллекционированием и каталогизацией ссылок, присылаемых и публикуемых на форуме нашими читателями. Если вы являетесь правообладателем какого-либо представленного материала и не желаете, чтобы ссылка на него находилась в нашем каталоге, свяжитесь с нами, и мы незамедлительно удалим ее. Файлы для обмена на трекере предоставлены пользователями сайта, и администрация не несет ответственности за их содержание. Просьба не заливать файлы, защищенные авторскими правами, а также файлы нелегального содержания!