[ Сегодня идет свободное скачивание без начисления Download ]


Статистика раздачи
Нет
 
   
 
Top  
 
 
Однажды в Риме / When in Rome (2010) BDRip 720p Информация о фильме
Название: Однажды в Риме
Оригинальное название: When in Rome
Год выхода: 2010
Жанр: Мелодрама, комедия, приключения, фэнтези
Режиссёр: Марк Стивен Джонсон
В ролях: Кристен Белл, Джош Дюамель, Уилл Арнетт, Алексис Дзена, Джон Хидер, Дэкс Шепард, Дэнни ДеВито, Анжелика Хьюстон, Кейт Микуччи, Пегги Липтон, Бобби Мойнахан, Кейр О`Доннелл, Джудит Мэлина, Кристен Шаал, Лука Кальвани, Ли Пейс
О фильме:
Бетти живёт в Нью-Йорке и абсолютно не верит в романтику. Но однажды её младшая сестра приглашает Бетти на свою свадьбу - в старинном палаццо в самом сердце вечного города, Рима. По воле случая, как раз напротив оказывается легендарный Fantana D`Amore, фонтан, куда туристы со всего света бросают монетки, загадывая удачу в любви. Отчаянная девушка похищает из фонтана несколько монет, но она не знает, что из-за древней магии хозяева этих монеток превращаются в её отчаянных воздыхателей, которые последуют за ней через океан, настойчиво предлагая руку и сердце. Сумеет ли Бетти избавиться от назойливых поклонников и найти свою настоящую любовь?


Выпущено:
США, Touchstone Pictures, Krasnoff Foster Productions
Продолжительность: 01:30:47
Перевод: Дублированный (Невафильм)*, профессиональный многоголосый, украинский дублированный (Невафильм Украина)*
Оригинальная аудио-дорожка: Английская
Файл
Контейнер: MKV
Кодек: MPEG-4 AVC
Качество: BDRip 720p [Исходник: Blu-ray EUR AVC DTS-HD MA 5.1]
Видео: MPEG-4 AVC, 1280x536 (2.40:1), 5177 Кбит/с, 23.976 кадр/с, 0.315 bit/pixel
Аудио #1: Русский, Dolby AC3, 48000 Гц, 448 Кбит/с, 6 каналов (5.1) - DUB [Невафильм]*
Аудио #2: Русский, Dolby AC3, 48000 Гц, 384 Кбит/с, 6 каналов (5.1) - MVO
Аудио #3: Украинский, Dolby AC3, 48000 Гц, 448 Кбит/с, 6 каналов (5.1) - DUB [Невафильм Украина]*
Аудио #4: Русский, Dolby AC3, 48000 Гц, 448 Кбит/с, 6 каналов (5.1) - Оригинал
Субтитры: Русские, украинские, английские (полные, SRT)
Навигация по главам: Есть (Сохранены оригинальные чаптеры как на Blu-Ray, с названием всех глав)
* В русском и украинском дубляже, сделаны вставки MVO (русские и украинские соответственно), на места без перевода: на итальянскую речь, надписи, название фильма и т.п.

MediaInfo

General
Unique ID : 193694402214077865097671031146011436665 (0x91B82F57782D72C7AB35875527C02679)
Complete name : When.in.Rome.2010.BDRip.720p.mkv
Format : Matroska
Format version : Version 4 / Version 2
File size : 4.38 GiB
Duration : 1h 30mn
Overall bit rate : 6 903 Kbps
Movie name : Однажды в Риме / When in Rome (2010) BDRip (720p) от ivandubskoj
Encoded date : UTC 2016-03-30 14:26:16
Writing application : mkvmerge v7.8.0 ('River Man') 64bit built on Mar 27 2015 16:31:37
Writing library : libebml v1.3.1 + libmatroska v1.4.2
Video
ID : 1
Format : AVC
Format/Info : Advanced Video Codec
Format profile : High@L4.1
Format settings, CABAC : Yes
Format settings, ReFrames : 10 frames
Codec ID : V_MPEG4/ISO/AVC
Duration : 1h 30mn
Bit rate : 5 177 Kbps
Width : 1 280 pixels
Height : 536 pixels
Display aspect ratio : 2.40:1
Frame rate mode : Constant
Frame rate : 23.976 fps
Color space : YUV
Chroma subsampling : 4:2:0
Bit depth : 8 bits
Scan type : Progressive
Bits/(Pixel*Frame) : 0.315
Stream size : 3.19 GiB (73%)
Title : Однажды в Риме / When in Rome (2010)
Writing library : x264 core 146 r2538 121396c
Encoding settings : cabac=1 / ref=10 / deblock=1:-3:3 / analyse=0x3:0x113 / me=umh / subme=11 / psy=1 / psy_rd=1.00:0.00 / mixed_ref=1 / me_range=32 / chroma_me=1 / trellis=2 / 8x8dct=1 / cqm=0 / deadzone=21,11 / fast_pskip=0 / chroma_qp_offset=-2 / threads=6 / lookahead_threads=1 / sliced_threads=0 / nr=0 / decimate=0 / interlaced=0 / bluray_compat=0 / constrained_intra=0 / bframes=7 / b_pyramid=2 / b_adapt=2 / b_bias=0 / direct=3 / weightb=1 / open_gop=0 / weightp=2 / keyint=240 / keyint_min=23 / scenecut=40 / intra_refresh=0 / rc_lookahead=40 / rc=2pass / mbtree=0 / bitrate=5177 / ratetol=1.0 / qcomp=0.60 / qpmin=0 / qpmax=69 / qpstep=4 / cplxblur=20.0 / qblur=0.5 / vbv_maxrate=50000 / vbv_bufsize=62500 / nal_hrd=none / filler=0 / ip_ratio=1.40 / pb_ratio=1.30 / aq=1:1.00
Language : English
Default : Yes
Forced : No
Audio #1
ID : 2
Format : AC-3
Format/Info : Audio Coding 3
Mode extension : CM (complete main)
Format settings, Endianness : Big
Codec ID : A_AC3
Duration : 1h 30mn
Bit rate mode : Constant
Bit rate : 448 Kbps
Channel(s) : 6 channels
Channel positions : Front: L C R, Side: L R, LFE
Sampling rate : 48.0 KHz
Bit depth : 16 bits
Compression mode : Lossy
Stream size : 291 MiB (6%)
Title : DUB [Невафильм]
Language : Russian
Default : Yes
Forced : No
Audio #2
ID : 3
Format : AC-3
Format/Info : Audio Coding 3
Mode extension : CM (complete main)
Format settings, Endianness : Big
Codec ID : A_AC3
Duration : 1h 30mn
Bit rate mode : Constant
Bit rate : 384 Kbps
Channel(s) : 6 channels
Channel positions : Front: L C R, Side: L R, LFE
Sampling rate : 48.0 KHz
Bit depth : 16 bits
Compression mode : Lossy
Stream size : 249 MiB (6%)
Title : MVO
Language : Russian
Default : No
Forced : No
Audio #3
ID : 4
Format : AC-3
Format/Info : Audio Coding 3
Mode extension : CM (complete main)
Format settings, Endianness : Big
Codec ID : A_AC3
Duration : 1h 30mn
Bit rate mode : Constant
Bit rate : 448 Kbps
Channel(s) : 6 channels
Channel positions : Front: L C R, Side: L R, LFE
Sampling rate : 48.0 KHz
Bit depth : 16 bits
Compression mode : Lossy
Stream size : 291 MiB (6%)
Title : DUB [Невафильм Украина]
Language : Ukrainian
Default : No
Forced : No
Audio #4
ID : 5
Format : AC-3
Format/Info : Audio Coding 3
Mode extension : CM (complete main)
Format settings, Endianness : Big
Codec ID : A_AC3
Duration : 1h 30mn
Bit rate mode : Constant
Bit rate : 448 Kbps
Channel(s) : 6 channels
Channel positions : Front: L C R, Side: L R, LFE
Sampling rate : 48.0 KHz
Bit depth : 16 bits
Compression mode : Lossy
Stream size : 291 MiB (6%)
Title : Original
Language : English
Default : No
Forced : No
Text #1
ID : 6
Format : UTF-8
Codec ID : S_TEXT/UTF8
Codec ID/Info : UTF-8 Plain Text
Title : Full
Language : Russian
Default : No
Forced : No
Text #2
ID : 7
Format : UTF-8
Codec ID : S_TEXT/UTF8
Codec ID/Info : UTF-8 Plain Text
Title : Full
Language : Ukrainian
Default : No
Forced : No
Text #3
ID : 8
Format : UTF-8
Codec ID : S_TEXT/UTF8
Codec ID/Info : UTF-8 Plain Text
Title : Full
Language : English
Default : No
Forced : No
Menu
00:00:00.000 : en:1. Opening Credits / Beth's Big Event
00:05:10.060 : en:2. Joan's Getting Married
00:10:57.198 : en:3. A Wedding in Rome
00:14:36.334 : en:4. Beth Makes a Speech
00:18:48.586 : en:5. The Wedding Dance
00:22:39.233 : en:6. In the Fountain of Love
00:26:50.526 : en:7. Beth Returns Home
00:28:57.277 : en:8. The Coins in New York
00:35:16.197 : en:9. Front Page News
00:40:14.954 : en:10. Beth on the Run
00:44:20.908 : en:11. Recon on Beth
00:49:15.744 : en:12. Nick Gets a Date
00:54:26.013 : en:13. Safe at the Museum
00:59:52.088 : en:14. Breaking the Spells
01:05:51.948 : en:15. Driving the Gridlock
01:09:47.642 : en:16. Returning the Coins
01:14:57.243 : en:17. The Last Coin
01:17:27.726 : en:18. Another Wedding
01:22:09.091 : en:19. Beth Objects
01:24:36.488 : en:20. The End / End Credits

Скриншоты



[Цитировать]



Показать сообщения:    

Текущее время: 07-Дек 13:39

Часовой пояс: UTC + 3


Вы не можете начинать темы
Вы не можете отвечать на сообщения
Вы не можете редактировать свои сообщения
Вы не можете удалять свои сообщения
Вы не можете голосовать в опросах
Вы не можете прикреплять файлы к сообщениям
Вы не можете скачивать файлы

!ВНИМАНИЕ!
Сайт не предоставляет электронные версии произведений, а занимается лишь коллекционированием и каталогизацией ссылок, присылаемых и публикуемых на форуме нашими читателями. Если вы являетесь правообладателем какого-либо представленного материала и не желаете, чтобы ссылка на него находилась в нашем каталоге, свяжитесь с нами, и мы незамедлительно удалим ее. Файлы для обмена на трекере предоставлены пользователями сайта, и администрация не несет ответственности за их содержание. Просьба не заливать файлы, защищенные авторскими правами, а также файлы нелегального содержания!