[ Сегодня идет свободное скачивание без начисления Download ]


Статистика раздачи
Скачал: [ 1 ]
 
   
 
Top  
 
 
Шесть шведок в Альпах / Sechs Schwedinnen auf der Alm (1983) BDRip 720p Информация о фильме
Название: Шесть шведок в Альпах
Оригинальное название: Sechs Schwedinnen auf der Alm
Год выпуска: 1983
Жанр: Эротика, комедия
Режиссер: Пол Грау
В ролях: Анита Амстер, Марианна Обер, Вилли Бош, Албан Сирей, Эрик Фальк, Ули Фальк, Бригитта Гавас, Михаэлла Клоесс, Майк Ледерер, Петра Шротт, Эвелин Валаде, Элке Сьоберг
О фильме: Необременённые моральными запретами девушки резвятся в альпийской деревушке в ожидании наследства... Знаменитая эротическая комедия о приключениях шести шведок с большим количеством обнаженного тела, одна из лидеров проката "эпохи видеосалонов". Этот "отвязный", весёлый и незатейливый фильм является одним из лучших и заметных в творчестве швейцарца Эрвина Дитриха, выступившего здесь под режиссёрским псевдонимом Пол Грау.

Страна: Германия (ФРГ)
Продолжительность: 01:29:32
Перевод: Авторский одноголосый (Юрий Муравский)
Файл
Кодек: MPEG-4 AVC
Качество: BDRip (720p)
Видео: 5500 Кбит/с, 1280x692
Звук: Русский, немецкий (AC3, 2 ch, 192 Кбит/с)
Субтитры: Английские
Внимание фильм содержит сцены эротического характера +18

Скриншоты

Инфо-файл

Общее
Уникальный идентификатор : 226455168266107767396422920589317720735 (0xAA5DADD07C6DFA20B7F50901518B4A9F)
Полное имя : Sechs.Schwedinnen.auf.der.Alm.1983.BDRip.720p-ylnian.mkv
Формат : Matroska
Версия формата : Version 4 / Version 2
Размер файла : 3,68 Гбайт
Продолжительность : 1 ч. 29 м.
Общий поток : 5886 Кбит/сек
Название фильма : Sechs.Schwedinnen.auf.der.Alm.1983.BDRip.720p-ylnian
Дата кодирования : UTC 2015-02-26 11:58:19
Программа кодирования : mkvmerge v7.5.0 ('Glass Culture') 64bit built on Jan 4 2015 16:48:44
Библиотека кодирования : libebml v1.3.1 + libmatroska v1.4.2
Видео
Идентификатор : 1
Формат : AVC
Формат/Информация : Advanced Video Codec
Профиль формата : [email protected]
Параметр CABAC формата : Да
Параметр ReFrames формата : 9 кадров
Идентификатор кодека : V_MPEG4/ISO/AVC
Продолжительность : 1 ч. 29 м.
Битрейт : 5500 Кбит/сек
Ширина : 1280 пикселей
Высота : 692 пикселя
Соотношение сторон : 1,85:1
Режим частоты кадров : Постоянный
Частота кадров : 24,000 кадра/сек
Цветовое пространство : YUV
Субдискретизация насыщенности : 4:2:0
Битовая глубина : 8 бит
Тип развёртки : Прогрессивная
Бит/(Пиксели*Кадры) : 0.259
Размер потока : 3,37 Гбайт (91%)
Заголовок : Sechs.Schwedinnen.auf.der.Alm.1983.BDRip.720p
Библиотека кодирования : x264 core 129 r2230 1cffe9f
Настройки программы : cabac=1 / ref=9 / deblock=1:-3:-3 / analyse=0x3:0x133 / me=umh / subme=11 / psy=1 / psy_rd=1.00:0.15 / mixed_ref=1 / me_range=32 / chroma_me=1 / trellis=2 / 8x8dct=1 / cqm=0 / deadzone=21,11 / fast_pskip=1 / chroma_qp_offset=-5 / threads=12 / lookahead_threads=2 / sliced_threads=0 / nr=0 / decimate=1 / interlaced=0 / bluray_compat=0 / constrained_intra=0 / bframes=11 / b_pyramid=2 / b_adapt=2 / b_bias=0 / direct=2 / weightb=1 / open_gop=0 / weightp=2 / keyint=240 / keyint_min=23 / scenecut=40 / intra_refresh=0 / rc_lookahead=60 / rc=2pass / mbtree=1 / bitrate=5500 / ratetol=1.0 / qcomp=0.60 / qpmin=0 / qpmax=69 / qpstep=4 / cplxblur=20.0 / qblur=0.5 / ip_ratio=1.40 / aq=1:1.00
Язык : German
Default : Да
Forced : Да
Аудио #1
Идентификатор : 2
Формат : AC-3
Формат/Информация : Audio Coding 3
Расширение режима : CM (complete main)
Параметр Endianness формата : Big
Идентификатор кодека : A_AC3
Продолжительность : 1 ч. 29 м.
Вид битрейта : Постоянный
Битрейт : 192 Кбит/сек
Каналы : 2 канала
Расположение каналов : Front: L R
Частота : 48,0 КГц
Битовая глубина : 16 бит
Метод сжатия : С потерями
Размер потока : 123 Мбайт (3%)
Заголовок : AVO (Alekseev) (AC3 2.0 192 kbps)
Язык : Russian
Default : Да
Forced : Да
Аудио #2
Идентификатор : 3
Формат : AC-3
Формат/Информация : Audio Coding 3
Расширение режима : CM (complete main)
Параметр Endianness формата : Big
Идентификатор кодека : A_AC3
Продолжительность : 1 ч. 29 м.
Вид битрейта : Постоянный
Битрейт : 192 Кбит/сек
Каналы : 2 канала
Расположение каналов : Front: L R
Частота : 48,0 КГц
Битовая глубина : 16 бит
Метод сжатия : С потерями
Размер потока : 123 Мбайт (3%)
Заголовок : AC3 2.0 192 kbps
Язык : German
Default : Нет
Forced : Нет
Текст
Идентификатор : 4
Формат : UTF-8
Идентификатор кодека : S_TEXT/UTF8
Идентификатор кодека/Информация : UTF-8 Plain Text
Язык : English
Default : Нет
Forced : Нет
Меню
00:00:00.000 : en:00:00:00.000
00:08:08.000 : en:00:08:08.000
00:13:50.000 : en:00:13:50.000
00:25:54.000 : en:00:25:54.000
00:39:20.000 : en:00:39:20.000
00:44:34.000 : en:00:44:34.000
01:04:07.000 : en:01:04:07.000
01:23:24.000 : en:01:23:24.000

[Цитировать]



Показать сообщения:    

Текущее время: 05-Дек 15:35

Часовой пояс: UTC + 3


Вы не можете начинать темы
Вы не можете отвечать на сообщения
Вы не можете редактировать свои сообщения
Вы не можете удалять свои сообщения
Вы не можете голосовать в опросах
Вы не можете прикреплять файлы к сообщениям
Вы не можете скачивать файлы

!ВНИМАНИЕ!
Сайт не предоставляет электронные версии произведений, а занимается лишь коллекционированием и каталогизацией ссылок, присылаемых и публикуемых на форуме нашими читателями. Если вы являетесь правообладателем какого-либо представленного материала и не желаете, чтобы ссылка на него находилась в нашем каталоге, свяжитесь с нами, и мы незамедлительно удалим ее. Файлы для обмена на трекере предоставлены пользователями сайта, и администрация не несет ответственности за их содержание. Просьба не заливать файлы, защищенные авторскими правами, а также файлы нелегального содержания!