[ Сегодня идет свободное скачивание без начисления Download ]


Статистика раздачи
Нет
 
   
 
Top  
 
 
Последняя ночь (2015) HDRip 720p Информация о фильме
Оригинальное название: Последняя ночь
Год выпуска: 2015
Жанр: Драма
Режиссер: Арсений Гончуков
В ролях: Евгений Крылов, Мария Сурова, Даниэла Стоянович, Алексей Маслодудов, Алексей Любимов, Ксения Поддубицкая, Георгий Мартиросьян, Анастасия Великородная, Виктор Муравский, Наталия Вдовина
О фильме:
Иван — известный на всю страну ученый и врач-онколог. Десятилетиями он занимается поиском и разработкой лекарства от рака. И вот наконец-то он находит панацею, к нему приходит слава, о нем начинают говорить СМИ… Но вдруг Иван, успешный руководитель специализированной онкологической клиники в Москве, выясняет, что у него у самого страшное заболевание. По частой иронии судьбы онкологов, он болен раком на последней, неизлечимой даже его препаратом стадии. Далее события развиваются стремительно и непредсказуемо. Успешный врач бросает семью, коллег и, ничего им не говоря, уезжает в другой город. Туда, где живет женщина, которую он любил всю жизнь и которую любит до сих пор. Он приезжает, и они встречаются.
Страна: Россия
Студия: Кинокомпания "Aquarium Films"
Продолжительность: 01:30:00
Файл
Кодек: x264
Качество: HDRip 720р
Видео: MPEG-4, 2800 Кбит/с, 1280x720
Аудио: AC3, 2 ch, 192 Кбит/с
Язык: Русский

Скриншоты

Медиа-Инфо

raw [info]: 1280x720p 1:1 @ 24/1 fps (cfr)
x264 [info]: using SAR=1/1
x264 [info]: using cpu capabilities: MMX2 SSE2Fast SSSE3 SSE4.2 AVX
x264 [info]: profile High, level 4.1
x264 [info]: frame I:571 Avg QP:14.03 size:114433
x264 [info]: frame P:28114 Avg QP:16.85 size: 32684
x264 [info]: frame B:100915 Avg QP:17.47 size: 8963
===========================================================================
Общее
Уникальный идентификатор : 174496449515347884262028457108551606161 (0x8346CB31F5E1EE9A89A9AD732A659F91)
Полное имя : D:Последняя ночь_2015-HDRip 720p.mkv
Формат : Matroska
Версия формата : Version 2
Размер файла : 1,88 Гбайт
Продолжительность : 1 ч. 30 м.
Общий поток : 2992 Кбит/сек
Дата кодирования : UTC 2016-03-30 14:30:35
Программа кодирования : mkvmerge v5.8.0 ('No Sleep / Pillow') built on Sep 2 2012 15:37:04
Библиотека кодирования : libebml v1.2.3 + libmatroska v1.3.0
Видео
Идентификатор : 1
Формат : AVC
Формат/Информация : Advanced Video Codec
Профиль формата : [email protected]
Параметр CABAC формата : Да
Параметр ReFrames формата : 9 кадров
Идентификатор кодека : V_MPEG4/ISO/AVC
Продолжительность : 1 ч. 30 м.
Битрейт : 2800 Кбит/сек
Ширина : 1280 пикселей
Высота : 720 пикселей
Соотношение сторон : 16:9
Режим частоты кадров : Постоянный
Частота кадров : 24,000 кадра/сек
Цветовое пространство : YUV
Субдискретизация насыщенности : 4:2:0
Битовая глубина : 8 бит
Тип развёртки : Прогрессивная
Бит/(Пиксели*Кадры) : 0.127
Размер потока : 1,72 Гбайт (92%)
Библиотека кодирования : x264 core 148 r2638 7599210
Настройки программы : cabac=1 / ref=9 / deblock=1:-3:-2 / analyse=0x3:0x113 / me=umh / subme=10 / psy=1 / psy_rd=1.00:0.10 / mixed_ref=1 / me_range=32 / chroma_me=1 / trellis=2 / 8x8dct=1 / cqm=0 / deadzone=21,11 / fast_pskip=0 / chroma_qp_offset=-3 / threads=12 / lookahead_threads=3 / sliced_threads=0 / nr=0 / decimate=0 / interlaced=0 / bluray_compat=0 / constrained_intra=0 / bframes=13 / b_pyramid=2 / b_adapt=2 / b_bias=0 / direct=3 / weightb=1 / open_gop=0 / weightp=2 / keyint=250 / keyint_min=24 / scenecut=40 / intra_refresh=0 / rc=2pass / mbtree=0 / bitrate=2800 / ratetol=1.0 / qcomp=0.60 / qpmin=0 / qpmax=39 / qpstep=4 / cplxblur=20.0 / qblur=0.5 / ip_ratio=1.25 / pb_ratio=1.30 / aq=1:1.00
Язык : English
Default : Да
Forced : Нет
Основные цвета : BT.709
Характеристики трансфера : BT.709
Коэффициенты матрицы : BT.709
Аудио
Идентификатор : 2
Формат : AC-3
Формат/Информация : Audio Coding 3
Расширение режима : CM (complete main)
Параметр Endianness формата : Big
Идентификатор кодека : A_AC3
Продолжительность : 1 ч. 30 м.
Вид битрейта : Постоянный
Битрейт : 192 Кбит/сек
Каналы : 2 канала
Расположение каналов : Front: L R
Частота : 48,0 КГц
Битовая глубина : 16 бит
Метод сжатия : С потерями
Размер потока : 124 Мбайт (6%)
Язык : Russian
Default : Да
Forced : Нет

Доп.инфо

Рип с режиссерского мастера до обработки каналом.

[Цитировать]



Показать сообщения:    

Текущее время: 04-Дек 21:26

Часовой пояс: UTC + 3


Вы не можете начинать темы
Вы не можете отвечать на сообщения
Вы не можете редактировать свои сообщения
Вы не можете удалять свои сообщения
Вы не можете голосовать в опросах
Вы не можете прикреплять файлы к сообщениям
Вы не можете скачивать файлы

!ВНИМАНИЕ!
Сайт не предоставляет электронные версии произведений, а занимается лишь коллекционированием и каталогизацией ссылок, присылаемых и публикуемых на форуме нашими читателями. Если вы являетесь правообладателем какого-либо представленного материала и не желаете, чтобы ссылка на него находилась в нашем каталоге, свяжитесь с нами, и мы незамедлительно удалим ее. Файлы для обмена на трекере предоставлены пользователями сайта, и администрация не несет ответственности за их содержание. Просьба не заливать файлы, защищенные авторскими правами, а также файлы нелегального содержания!