[ Сегодня идет свободное скачивание без начисления Download ]


Статистика раздачи
Скачал: [ 1 ]
 
   
 
Top  
 
 
Пятница (2016) WEB-DL 720p Производство: Россия / RSS Production
Жанр: Комедия
Режиссер: Евгений Шелякин
Продюсер: Рашид Сардаров, Бинке Анисимов, Ибрагим Магомедов
Актеры: Данила Козловский, Настасья Самбурская, Катерина Шпица, Павел Деревянко, Кирилл Плетнёв, Евгения Брик, Антон Шагин, Ян Цапник, Евгений Стычкин, Сергей Бурунов
Описание:
Что если азартный миллионер на одну ночь станет официантом, офисный лузер будет звездой самой яркой вечеринки, а двум «заклятым» друзьям придется искать кенгуру ночью в подмосковном лесу? У каждого своя пятница! Как она закончится для каждого, знает только утро субботы
Возраст: 16+ (зрителям, достигшим 16 лет)
Рейтинг MPAA: R (лицам до 17 лет обязательно присутствие взрослого)
Дата мировой премьеры: 23 марта 2016
Дата российской премьеры: 26 февраля 2016, «Централ Партнершип»
Продолжительность: 01:26:54
Качество видео: WEB-DL 720p-LQ pic
Перевод: Не требуется (русский) iTunes
Вид субтитров: Отсутствуют
Видео: AVC, 1280x534 (2.35:1), 24.000 fps, 3 886 Kbps (0.237 bit/pixel)
Аудио: AC-3, 48.0 KHz, 6 ch, 384 Kbps, CBR

Mediainfo:

Формат                                   : Matroska
Версия формата                           : Version 4 / Version 2
Размер файла                             : 2,65 Гбайт
Продолжительность                        : 1 ч. 26 м.
Общий поток                              : 4357 Кбит/сек
Дата кодирования                         : UTC 2016-03-31 19:57:51
Программа кодирования                    : mkvmerge v8.3.0 ('Over the Horizon') 64bit
Библиотека кодирования                   : libebml v1.3.1 + libmatroska v1.4.2
DURATION                                 : 01:26:54.848000000
NUMBER_OF_FRAMES                         : 162964
NUMBER_OF_BYTES                          : 250312704
_STATISTICS_WRITING_APP                  : mkvmerge v8.3.0 ('Over the Horizon') 64bit
_STATISTICS_WRITING_DATE_UTC             : 2016-03-31 19:57:51
_STATISTICS_TAGS                         : BPS DURATION NUMBER_OF_FRAMES NUMBER_OF_BYTES
Видео
Идентификатор                            : 1
Формат                                   : AVC
Формат/Информация                        : Advanced Video Codec
Профиль формата                          : Main@L3.1
Параметр CABAC формата                   : Нет
Параметр ReFrames формата                : 2 кадра
Идентификатор кодека                     : V_MPEG4/ISO/AVC
Продолжительность                        : 1 ч. 26 м.
Битрейт                                  : 3886 Кбит/сек
Ширина                                   : 1280 пикселей
Высота                                   : 534 пикселя
Соотношение сторон                       : 2,40:1
Режим частоты кадров                     : Постоянный
Частота кадров                           : 24,000 кадра/сек
Цветовое пространство                    : YUV
Субдискретизация насыщенности            : 4:2:0
Битовая глубина                          : 8 бит
Тип развёртки                            : Прогрессивная
Бит/(Пиксели*Кадры)                      : 0.237
Размер потока                            : 2,36 Гбайт (89%)
Язык                                     : English
Default                                  : Да
Forced                                   : Нет
Цветовой диапазон                        : Limited
Основные цвета                           : BT.709
Характеристики трансфера                 : BT.709
Коэффициенты матрицы                     : BT.709
Аудио
Идентификатор                            : 2
Формат                                   : AC-3
Формат/Информация                        : Audio Coding 3
Расширение режима                        : CM (complete main)
Параметр Endianness формата              : Big
Идентификатор кодека                     : A_AC3
Продолжительность                        : 1 ч. 26 м.
Вид битрейта                             : Постоянный
Битрейт                                  : 384 Кбит/сек
Каналы                                   : 6 каналов
Расположение каналов                     : Front: L C R, Side: L R, LFE
Частота                                  : 48,0 КГц
Битовая глубина                          : 16 бит
Метод сжатия                             : С потерями
Размер потока                            : 239 Мбайт (9%)
Язык                                     : Russian
Default                                  : Да
Forced                                   : Нет
Меню
00:00:00.000                             : en:Глава 1
00:05:09.000                             : en:Глава 2
00:10:17.541                             : en:Глава 3
00:15:26.291                             : en:Глава 4
00:21:16.832                             : en:Глава 5
00:27:04.165                             : en:Глава 6
00:32:19.956                             : en:Глава 7
00:37:51.789                             : en:Глава 8
00:43:00.122                             : en:Глава 9
00:48:50.122                             : en:Глава 10
00:54:06.622                             : en:Глава 11
00:59:43.372                             : en:Глава 12
01:05:15.580                             : en:Глава 13
01:10:28.996                             : en:Глава 14
01:16:43.079                             : en:Глава 15

Скриншоты

[Цитировать]



Показать сообщения:    

Текущее время: 23-Мар 20:20

Часовой пояс: UTC + 6


Вы не можете начинать темы
Вы не можете отвечать на сообщения
Вы не можете редактировать свои сообщения
Вы не можете удалять свои сообщения
Вы не можете голосовать в опросах
Вы не можете прикреплять файлы к сообщениям
Вы не можете скачивать файлы

!ВНИМАНИЕ!
Сайт не предоставляет электронные версии произведений, а занимается лишь коллекционированием и каталогизацией ссылок, присылаемых и публикуемых на форуме нашими читателями. Если вы являетесь правообладателем какого-либо представленного материала и не желаете, чтобы ссылка на него находилась в нашем каталоге, свяжитесь с нами, и мы незамедлительно удалим ее. Файлы для обмена на трекере предоставлены пользователями сайта, и администрация не несет ответственности за их содержание. Просьба не заливать файлы, защищенные авторскими правами, а также файлы нелегального содержания!