[ Сегодня идет свободное скачивание без начисления Download ]


Статистика раздачи
Нет
 
   
 
Top  
 
 
Бандитки / Bandidas (2006) BDRip 720p Информация о фильме
Название: Бандитки
Оригинальное название: Bandidas
Год выхода: 2006
Жанр: Боевик, комедия, приключения, криминал, вестерн
Режиссёр: Хоаким Роннинг, Эспен Сандберг
В ролях: Пенелопа Крус, Сальма Хайек, Стив Зан, Исмаэль 'Ист' Карло, Джусто Мартинез, Ана Офелиа Мургуйя, Эдгар Вивар, Джозеф Д. Рейтман, Денис Арндт, Одра Блейзер, Карл Браун, Гэри Сервантес, Умберто Элисондо, Дая Фернандес, Эрнесто Гомес Крус, Хуан Мануэль Робледо Риос, Серджо Гонзалез, Джулиан Седжуик, Андреа Гонзалез, Сэм Шепард, Дуайт Йокам, Мануэль Руис
О фильме:
Мексика, 1888 год. Две очаровательные налётчицы - образованная европейка и грубоватая мексиканка - наводят ужас на банки Дикого Запада. Никто не может противостоять их изобретательности и неустрашимости. И, тем более, никто не может устоять перед их красотой...

Выпущено: Франция, Мексика, США, A.J.O.Z. Films, Canal+ [fr], Europa Corp.
Продолжительность: 01:33:12
Перевод: Дублированный (Мосфильм-Мастер), профессиональный многоголосый (Пятый канал), авторский одноголосый (А. Гаврилов), авторский одноголосый (М. Иванов), украинский профессиональный двухголосый (TET)
Оригинальная аудио-дорожка: Английская
Файл
Контейнер: MKV
Кодек: MPEG-4 AVC
Качество: BDRip (720p) [Исходник: Blu-ray Remux (1080p)]
Видео: MPEG-4 AVC, 1280x544 (2.35:1), 4753 Кбит/с, 23,976 кадр/с, 0.285 bit/pixel
Аудио #1: Русский, Dolby AC3, 48000 Гц, 384 Кбит/с, 6 каналов (5.1) - DUB [Мосфильм-Мастер]
Аудио #2: Русский, Dolby AC3, 48000 Гц, 192 Кбит/с, 2 канала (Стерео) - MVO [Пятый канал]
Аудио #3: Русский, Dolby AC3, 48000 Гц, 384 Кбит/с, 6 каналов (5.1) - AVO [А. Гаврилов]
Аудио #4: Русский, Dolby AC3, 48000 Гц, 384 Кбит/с, 6 каналов (5.1) - AVO [М. Иванов]
Аудио #5: Украинский, Dolby AC3, 48000 Гц, 192 Кбит/с, 2 канала (Стерео) - DVO [TET]
Аудио #6: Английский, Dolby AC3, 48000 Гц, 384 Кбит/с, 6 каналов (5.1) - Оригинал
Субтитры: Русские, украинские, английские (полные, SRT)
Навигация по главам: Есть (Сохранены оригинальные чаптеры как на Blu-ray)

MediaInfo

General
Unique ID : 190245902237072663460545103257004836602 (0x8F20072A74052F0EAE04BFD217BE86FA)
Complete name : Bandidas.2006.BDRip.720p.mkv
Format : Matroska
Format version : Version 4 / Version 2
File size : 4.35 GiB
Duration : 1h 33mn
Overall bit rate : 6 676 Kbps
Movie name : Бандитки / Bandidas (2006) BDRip (720p) от ivandubskoj
Encoded date : UTC 2016-04-01 20:44:58
Writing application : mkvmerge v7.8.0 ('River Man') 64bit built on Mar 27 2015 16:31:37
Writing library : libebml v1.3.1 + libmatroska v1.4.2
Video
ID : 1
Format : AVC
Format/Info : Advanced Video Codec
Format profile : [email protected]
Format settings, CABAC : Yes
Format settings, ReFrames : 10 frames
Codec ID : V_MPEG4/ISO/AVC
Duration : 1h 33mn
Bit rate : 4 753 Kbps
Width : 1 280 pixels
Height : 544 pixels
Display aspect ratio : 2.35:1
Frame rate mode : Constant
Frame rate : 23.976 fps
Color space : YUV
Chroma subsampling : 4:2:0
Bit depth : 8 bits
Scan type : Progressive
Bits/(Pixel*Frame) : 0.285
Stream size : 3.01 GiB (69%)
Title : Бандитки / Bandidas (2006)
Writing library : x264 core 146 r2538 121396c
Encoding settings : cabac=1 / ref=10 / deblock=1:-3:3 / analyse=0x3:0x113 / me=umh / subme=11 / psy=1 / psy_rd=1.00:0.00 / mixed_ref=1 / me_range=32 / chroma_me=1 / trellis=2 / 8x8dct=1 / cqm=0 / deadzone=21,11 / fast_pskip=0 / chroma_qp_offset=-2 / threads=6 / lookahead_threads=1 / sliced_threads=0 / nr=0 / decimate=0 / interlaced=0 / bluray_compat=0 / constrained_intra=0 / bframes=7 / b_pyramid=2 / b_adapt=2 / b_bias=0 / direct=3 / weightb=1 / open_gop=0 / weightp=2 / keyint=240 / keyint_min=23 / scenecut=40 / intra_refresh=0 / rc_lookahead=40 / rc=2pass / mbtree=0 / bitrate=4752 / ratetol=1.0 / qcomp=0.60 / qpmin=0 / qpmax=69 / qpstep=4 / cplxblur=20.0 / qblur=0.5 / vbv_maxrate=50000 / vbv_bufsize=62500 / nal_hrd=none / filler=0 / ip_ratio=1.40 / pb_ratio=1.30 / aq=1:1.00
Language : English
Default : Yes
Forced : No
Audio #1
ID : 2
Format : AC-3
Format/Info : Audio Coding 3
Mode extension : CM (complete main)
Format settings, Endianness : Big
Codec ID : A_AC3
Duration : 1h 33mn
Bit rate mode : Constant
Bit rate : 384 Kbps
Channel(s) : 6 channels
Channel positions : Front: L C R, Side: L R, LFE
Sampling rate : 48.0 KHz
Bit depth : 16 bits
Compression mode : Lossy
Stream size : 256 MiB (6%)
Title : DUB [Мосфильм-Мастер]
Language : Russian
Default : Yes
Forced : No
Audio #2
ID : 3
Format : AC-3
Format/Info : Audio Coding 3
Mode extension : CM (complete main)
Format settings, Endianness : Big
Codec ID : A_AC3
Duration : 1h 33mn
Bit rate mode : Constant
Bit rate : 192 Kbps
Channel(s) : 2 channels
Channel positions : Front: L R
Sampling rate : 48.0 KHz
Bit depth : 16 bits
Compression mode : Lossy
Stream size : 128 MiB (3%)
Title : MVO [Пятый канал]
Language : Russian
Default : No
Forced : No
Audio #3
ID : 4
Format : AC-3
Format/Info : Audio Coding 3
Mode extension : CM (complete main)
Format settings, Endianness : Big
Codec ID : A_AC3
Duration : 1h 33mn
Bit rate mode : Constant
Bit rate : 384 Kbps
Channel(s) : 6 channels
Channel positions : Front: L C R, Side: L R, LFE
Sampling rate : 48.0 KHz
Bit depth : 16 bits
Compression mode : Lossy
Stream size : 256 MiB (6%)
Title : AVO [А. Гаврилов]
Language : Russian
Default : No
Forced : No
Audio #4
ID : 5
Format : AC-3
Format/Info : Audio Coding 3
Mode extension : CM (complete main)
Format settings, Endianness : Big
Codec ID : A_AC3
Duration : 1h 33mn
Bit rate mode : Constant
Bit rate : 384 Kbps
Channel(s) : 6 channels
Channel positions : Front: L C R, Side: L R, LFE
Sampling rate : 48.0 KHz
Bit depth : 16 bits
Compression mode : Lossy
Stream size : 256 MiB (6%)
Title : AVO [М. Иванов]
Language : Russian
Default : No
Forced : No
Audio #5
ID : 6
Format : AC-3
Format/Info : Audio Coding 3
Mode extension : CM (complete main)
Format settings, Endianness : Big
Codec ID : A_AC3
Duration : 1h 33mn
Bit rate mode : Constant
Bit rate : 192 Kbps
Channel(s) : 2 channels
Channel positions : Front: L R
Sampling rate : 48.0 KHz
Bit depth : 16 bits
Compression mode : Lossy
Stream size : 128 MiB (3%)
Title : DVO [TET]
Language : Ukrainian
Default : No
Forced : No
Audio #6
ID : 7
Format : AC-3
Format/Info : Audio Coding 3
Mode extension : CM (complete main)
Format settings, Endianness : Big
Codec ID : A_AC3
Duration : 1h 33mn
Bit rate mode : Constant
Bit rate : 384 Kbps
Channel(s) : 6 channels
Channel positions : Front: L C R, Side: L R, LFE
Sampling rate : 48.0 KHz
Bit depth : 16 bits
Compression mode : Lossy
Stream size : 256 MiB (6%)
Title : Original
Language : English
Default : No
Forced : No
Text #1
ID : 8
Format : UTF-8
Codec ID : S_TEXT/UTF8
Codec ID/Info : UTF-8 Plain Text
Title : Full
Language : Russian
Default : No
Forced : No
Text #2
ID : 9
Format : UTF-8
Codec ID : S_TEXT/UTF8
Codec ID/Info : UTF-8 Plain Text
Title : Full
Language : Ukrainian
Default : No
Forced : No
Text #3
ID : 10
Format : UTF-8
Codec ID : S_TEXT/UTF8
Codec ID/Info : UTF-8 Plain Text
Title : Full
Language : English
Default : No
Forced : No
Menu
00:00:00.000 : en:Chapter 01
00:07:31.910 : en:Chapter 02
00:14:30.286 : en:Chapter 03
00:22:04.073 : en:Chapter 04
00:30:46.261 : en:Chapter 05
00:38:52.872 : en:Chapter 06
00:48:41.836 : en:Chapter 07
00:57:18.393 : en:Chapter 08
01:06:11.092 : en:Chapter 09
01:23:12.070 : en:Chapter 10

Скриншоты



[Цитировать]



Показать сообщения:    

Текущее время: 04-Дек 09:14

Часовой пояс: UTC + 3


Вы не можете начинать темы
Вы не можете отвечать на сообщения
Вы не можете редактировать свои сообщения
Вы не можете удалять свои сообщения
Вы не можете голосовать в опросах
Вы не можете прикреплять файлы к сообщениям
Вы не можете скачивать файлы

!ВНИМАНИЕ!
Сайт не предоставляет электронные версии произведений, а занимается лишь коллекционированием и каталогизацией ссылок, присылаемых и публикуемых на форуме нашими читателями. Если вы являетесь правообладателем какого-либо представленного материала и не желаете, чтобы ссылка на него находилась в нашем каталоге, свяжитесь с нами, и мы незамедлительно удалим ее. Файлы для обмена на трекере предоставлены пользователями сайта, и администрация не несет ответственности за их содержание. Просьба не заливать файлы, защищенные авторскими правами, а также файлы нелегального содержания!